<?xml version="1.0" standalone="no"?>
<!DOCTYPE svg PUBLIC "-//W3C//DTD SVG 1.1//EN" "http://www.w3.org/Graphics/SVG/1.1/DTD/svg11.dtd" >
<svg xmlns="http://www.w3.org/2000/svg">
<metadata>Generated by IcoMoon</metadata>
<defs>
<font id="wpmudev-plugin-icons" horiz-adv-x="1024">
<font-face units-per-em="1024" ascent="960" descent="-64"/>
<missing-glyph horiz-adv-x="1024"/>
<glyph unicode="&#x20;" horiz-adv-x="512" d=""/>
<glyph unicode="&#x21;" glyph-name="warning-alert" d="M512 960c70.667 0 137-13.333 199-40 62.667-26.667 117.166-63.166 163.5-109.5s82.833-100.833 109.5-163.5c26.667-62 40-128.333 40-199s-13.333-137-40-199c-26.667-62.667-63.166-117.166-109.5-163.5s-100.833-82.833-163.5-109.5c-62-26.667-128.333-40-199-40s-137 13.333-199 40c-62.667 26.667-117.166 63.166-163.5 109.5s-82.833 100.833-109.5 163.5c-26.667 62-40 128.333-40 199s13.333 137 40 199c26.667 62.667 63.166 117.166 109.5 163.5s100.833 82.833 163.5 109.5c62 26.667 128.333 40 199 40zM512 704c-35.346 0-64-28.654-64-64v-192c0-35.346 28.654-64 64-64s64 28.654 64 64v192c0 35.346-28.654 64-64 64zM512 192c35.346 0 64 28.654 64 64s-28.654 64-64 64c-35.346 0-64-28.654-64-64s28.654-64 64-64z"/>
<glyph unicode="&#x22;" glyph-name="arrow-skip-end" d="M229.76 99.83c4.702-4.248 10.107-7.843 15.997-10.569l0.397-0.164c5.507-2.395 11.921-3.787 18.662-3.787 0.426 0 0.852 0.006 1.275 0.017l-0.062-0.002c0.047 0 0.102 0 0.156 0 7.141 0 13.921 1.549 20.021 4.331l-0.302-0.123c6.217 2.8 11.572 6.251 16.33 10.37l-0.083-0.070 311.025 311.897c4.641 4.638 8.371 10.184 10.905 16.35l0.12 0.333c2.477 5.93 3.917 12.819 3.917 20.044 0 0.094 0 0.187-0.001 0.279v-0.015c0 0.078 0.001 0.17 0.001 0.262 0 7.177-1.44 14.017-4.046 20.248l0.129-0.346c-2.617 6.511-6.353 12.065-11.021 16.678l-0.005 0.005-311.751 310.591c-4.539 4.573-9.931 8.291-15.918 10.898l-0.331 0.129c-5.488 2.22-11.852 3.508-18.518 3.508-0.579 0-1.155-0.009-1.729-0.028l0.084 0.003c-0.233 0.005-0.509 0.006-0.786 0.006-13.822 0-26.352-5.539-35.489-14.52l0.007 0.006-36.267-36.558c-4.407-4.602-7.985-10.041-10.465-16.049l-0.126-0.345c-2.647-5.948-4.187-12.889-4.187-20.189 0-13.973 5.645-26.63 14.778-35.81l-0.003 0.003 238.203-239.217-238.203-238.492c-4.607-4.517-8.33-9.915-10.902-15.924l-0.123-0.323c-2.215-5.506-3.497-11.891-3.497-18.575 0-0.458 0.006-0.912 0.017-1.366l-0.002 0.067c0-0.079-0.001-0.172-0.001-0.266 0-7.226 1.439-14.116 4.047-20.397l-0.13 0.353c2.373-6.284 5.984-11.622 10.569-15.938l0.021-0.019 36.558-37.283zM730.244 99.83h87.040c16.023 0 29.013 12.99 29.013 29.013v0 638.299c0 16.023-12.99 29.013-29.013 29.013v0h-87.040c-16.023 0-29.013-12.99-29.013-29.013v0-638.299c0-16.023 12.99-29.013 29.013-29.013v0z"/>
<glyph unicode="&#x23;" glyph-name="align-justify" d="M915.2 896h-806.4c-24.743 0-44.8-20.057-44.8-44.8v-40.619c0-24.743 20.057-44.8 44.8-44.8h806.4c24.743 0 44.8 20.057 44.8 44.8v40.619c0 24.743-20.057 44.8-44.8 44.8zM915.2 639.744h-806.4c-24.743 0-44.8-20.057-44.8-44.8v-40.619c0-24.743 20.057-44.8 44.8-44.8h806.4c24.743 0 44.8 20.057 44.8 44.8v41.365c0 24.743-20.057 44.8-44.8 44.8zM915.2 384.235h-806.4c-24.743 0-44.8-20.057-44.8-44.8v-40.619c0-24.743 20.057-44.8 44.8-44.8h806.4c24.743 0 44.8 20.057 44.8 44.8v41.365c0 24.743-20.057 44.8-44.8 44.8zM915.2 128.725h-806.4c-24.743 0-44.8-20.057-44.8-44.8v-39.125c0-24.743 20.057-44.8 44.8-44.8h806.4c24.743 0 44.8 20.057 44.8 44.8v39.872c0 24.743-20.057 44.8-44.8 44.8z"/>
<glyph unicode="&#x24;" glyph-name="monitor" d="M961.194 860.245h-898.389c-34.686 0-62.805-28.119-62.805-62.805v-548.011c0-34.686 28.119-62.805 62.805-62.805h338.261v-95.232h-104.789c-9.897 0-17.92-8.023-17.92-17.92v-19.456c-0.002-0.102-0.003-0.221-0.003-0.341 0-9.897 8.023-17.92 17.92-17.92 0.001 0 0.002 0 0.003 0h422.229c9.897 0 17.92 8.023 17.92 17.92v19.627c0 9.897-8.023 17.92-17.92 17.92h-95.573v95.232h338.261c0 0 0 0 0 0 34.686 0 62.805 28.119 62.805 62.805 0 0.060 0 0.12 0 0.18v548.001c0 34.686-28.119 62.805-62.805 62.805zM111.956 749.311h800.085v-451.755h-800.085z"/>
<glyph unicode="&#x25;" glyph-name="align-left" d="M913.333 896h-802.667c-24.165 0-43.755-19.59-43.755-43.755v-40.32c0-0.045 0-0.097 0-0.149 0-24.165 19.59-43.755 43.755-43.755 0 0 0 0 0 0h802.667c24.165 0 43.755 19.59 43.755 43.755v40.469c0 24.165-19.59 43.755-43.755 43.755zM110.667 512.213h586.432c24.165 0 43.755 19.59 43.755 43.755v40.32c0 24.165-19.59 43.755-43.755 43.755h-586.432c-24.165 0-43.755-19.59-43.755-43.755v-40.32c0-24.165 19.59-43.755 43.755-43.755zM825.675 127.979h-715.008c-24.165 0-43.755-19.59-43.755-43.755v-40.32c0-0.045 0-0.097 0-0.149 0-24.165 19.59-43.755 43.755-43.755 0 0 0 0 0 0h715.008c24.165 0 43.755 19.59 43.755 43.755v0 40.32c0 24.165-19.59 43.755-43.755 43.755zM110.667 255.957h498.923c24.165 0 43.755 19.59 43.755 43.755v0 40.32c0 24.165-19.59 43.755-43.755 43.755h-498.923c0 0 0 0 0 0-24.113 0-43.67-19.505-43.755-43.597v-40.327c0-24.165 19.59-43.755 43.755-43.755z"/>
<glyph unicode="&#x26;" glyph-name="align-right" d="M913.259 896h-802.667c-24.165 0-43.755-19.59-43.755-43.755v-40.32c0-0.045 0-0.097 0-0.149 0-24.165 19.59-43.755 43.755-43.755 0 0 0 0 0 0h802.667c24.165 0 43.755 19.59 43.755 43.755v40.469c0 24.165-19.59 43.755-43.755 43.755zM913.259 640.043h-586.432c-24.165 0-43.755-19.59-43.755-43.755v-40.32c0-24.165 19.59-43.755 43.755-43.755h586.432c24.165 0 43.755 19.59 43.755 43.755v40.32c0 24.165-19.59 43.755-43.755 43.755zM913.108 127.979h-714.859c-24.165 0-43.755-19.59-43.755-43.755v-40.32c0-0.045 0-0.097 0-0.149 0-24.165 19.59-43.755 43.755-43.755 0 0 0 0 0 0h714.859c24.165 0 43.755 19.59 43.755 43.755v0 40.32c0 24.165-19.59 43.755-43.755 43.755zM957.163 340.181c0 24.165-19.59 43.755-43.755 43.755h-498.923c-24.165 0-43.755-19.59-43.755-43.755v-40.32c0-24.165 19.59-43.755 43.755-43.755h498.773c24.165 0 43.755 19.59 43.755 43.755v0 40.32z"/>
<glyph unicode="&#x27;" glyph-name="quote-2" d="M214.449 82.518c-117.589 0-219.477 101.888-214.357 237.568 8.021 222.037 243.029 386.56 426.667 493.568l54.955-46.933c-131.413-78.336-259.755-199.168-267.264-339.456-5.12-141.141 167.083-206.165 167.083-211.627-2.56-73.045-75.776-133.291-167.083-133.291zM757.681 82.347c-117.419 0-219.307 102.4-214.187 237.568 7.851 221.867 242.859 386.389 425.643 493.568l54.955-46.763c-130.731-78.336-258.56-199.168-266.411-339.456-5.12-141.141 167.083-206.165 167.083-211.627-2.56-73.045-75.776-133.291-167.083-133.291z"/>
<glyph unicode="&#x28;" glyph-name="check" d="M968.539 715.568l-62.444 62.444c-7.94 8.099-18.995 13.119-31.221 13.119s-23.282-5.021-31.215-13.112l-460.37-462.087-202.941 202.941c-7.94 8.099-18.995 13.119-31.221 13.119s-23.282-5.021-31.215-13.112l-62.45-62.45c-8.099-7.94-13.119-18.995-13.119-31.221s5.021-23.282 13.112-31.215l266.016-263.518c15.821-15.822 37.676-25.608 61.819-25.608s45.998 9.786 61.819 25.608l523.431 523.275c8.099 7.94 13.119 18.995 13.119 31.221s-5.021 23.282-13.112 31.215z"/>
<glyph unicode="&#x29;" glyph-name="close" d="M620.102 448.032l234.834 234.834c7.407 7.444 11.987 17.708 11.987 29.041s-4.579 21.597-11.988 29.042l-50.879 50.097c-7.444 7.407-17.708 11.987-29.041 11.987s-21.597-4.579-29.042-11.988l-234.832-234.832-234.834 234.834c-7.377 7.168-17.458 11.588-28.572 11.588s-21.195-4.42-28.581-11.598l-50.558-50.401c-7.315-7.428-11.832-17.628-11.832-28.885s4.517-21.457 11.836-28.89l234.828-234.828-234.834-234.834c-7.407-7.444-11.987-17.708-11.987-29.041s4.579-21.597 11.988-29.042l50.566-50.097c7.427-7.445 17.696-12.051 29.041-12.051s21.615 4.606 29.041 12.050l234.835 234.835 234.834-234.834c7.444-7.407 17.708-11.987 29.041-11.987s21.597 4.579 29.042 11.988l50.409 50.409c7.407 7.444 11.987 17.708 11.987 29.041s-4.579 21.597-11.988 29.042z"/>
<glyph unicode="&#x2a;" glyph-name="align-y-center" d="M256 512v128c0 35.346 28.654 64 64 64h384c35.346 0 64-28.654 64-64v-128h192c35.346 0 64-28.654 64-64s-28.654-64-64-64h-192v-128c0-35.346-28.654-64-64-64h-384c-35.346 0-64 28.654-64 64v128h-192c-35.346 0-64 28.654-64 64s28.654 64 64 64h192z"/>
<glyph unicode="&#x2b;" glyph-name="cross-close" d="M1024 448c0 282.77-229.23 512-512 512s-512-229.23-512-512c0-282.77 229.23-512 512-512s512 229.23 512 512zM680.107 235.349c-5.961-5.964-14.198-9.652-23.296-9.652s-17.335 3.689-23.296 9.652l-121.515 121.515-121.515-121.515c-5.961-5.964-14.198-9.652-23.296-9.652s-17.335 3.689-23.296 9.652l-49.835 49.835c-5.964 5.961-9.652 14.198-9.652 23.296s3.689 17.335 9.652 23.296l121.515 121.515-121.515 121.515c-5.964 5.961-9.652 14.198-9.652 23.296s3.689 17.335 9.652 23.296l49.835 49.835c5.961 5.964 14.198 9.652 23.296 9.652s17.335-3.689 23.296-9.652l121.515-120.832 121.515 121.515c5.961 5.964 14.198 9.652 23.296 9.652s17.335-3.689 23.296-9.652l49.835-49.835c5.964-5.961 9.652-14.198 9.652-23.296s-3.689-17.335-9.652-23.296l-121.515-121.515 121.515-121.515c5.964-5.961 9.652-14.198 9.652-23.296s-3.689-17.335-9.652-23.296z"/>
<glyph unicode="&#x2c;" glyph-name="clock" d="M512 823.467c207.365 0 375.467-168.102 375.467-375.467s-168.102-375.467-375.467-375.467c-207.365 0-375.467 168.102-375.467 375.467 0.677 207.091 168.375 374.79 375.401 375.466zM512 960c-282.77 0-512-229.23-512-512s229.23-512 512-512c282.77 0 512 229.23 512 512s-229.23 512-512 512zM774.144 638.293l-53.248 53.248c-4.962 4.662-11.661 7.527-19.029 7.527s-14.067-2.864-19.044-7.54l-170.652-170.653-93.696 93.696c-4.946 4.7-11.65 7.591-19.029 7.591s-14.083-2.891-19.041-7.602l-53.065-53.066c-4.951-4.865-8.020-11.631-8.021-19.114 0-0.020 0-0.043 0-0.066 0-7.378 3.001-14.055 7.85-18.877l165.719-165.719c4.849-4.851 11.549-7.851 18.95-7.851 0.058 0 0.116 0 0.174 0.001h1.015c7.274 0.098 13.834 3.079 18.603 7.851l242.347 242.347c4.857 4.876 7.86 11.602 7.86 19.029s-3.003 14.153-7.861 19.030z"/>
<glyph unicode="&#x2d;" glyph-name="instagram" d="M931.8 447.688c-0.522 0.007-1.044 0.014-1.563 0.020 0 43.786 1.017 87.6-0.287 131.348-1.304 43.68-0.492 87.542-8.619 130.867-15.025 80.104-67.485 132.495-147.681 147.449-43.892 8.189-88.323 7.806-132.57 8.547-76.752 1.287-153.542 1.362-230.298 0.495-46.572-0.522-93.31-1.731-139.622-6.212-94.406-9.144-155.559-64.7-168.54-154.863-6.048-42.022-7.724-84.879-8.499-127.409-1.41-77.315-1.386-154.675-0.539-232.001 0.505-46.001 1.809-92.157 6.127-137.923 8.926-94.522 64.177-156.45 155.778-169.585 40.912-5.868 82.644-8.076 124.017-8.243 110.292-0.444 220.6 0.768 330.889 2.188 22.040 0.283 44.377 2.7 65.987 7.062 75.008 15.148 124.105 59.129 141.708 134.571 5.516 23.631 8.564 48.213 9.424 72.479 2.369 67.038 2.983 134.134 4.291 201.209zM713.388-64.001h-402.773c-6.168 0.853-12.326 1.802-18.504 2.546-20.292 2.451-40.902 3.335-60.836 7.482-115.746 24.081-190.16 92.631-218.092 208.268-7.264 30.078-8.94 61.508-13.182 92.317v402.773c2.106 19.657 3.649 39.393 6.427 58.952 7.98 56.221 27.020 107.803 64.556 151.562 47.599 55.491 109.35 83.613 180.412 93.648 19.651 2.775 39.475 4.335 59.218 6.451h402.773c6.164-0.853 12.322-1.799 18.5-2.546 20.292-2.451 40.905-3.331 60.839-7.479 115.75-24.078 190.15-92.641 218.088-208.268 7.267-30.078 8.943-61.508 13.186-92.32v-402.773c-2.109-19.654-3.656-39.39-6.434-58.948-8.069-56.825-27.436-108.861-65.669-152.852-47.52-54.685-108.865-82.412-179.296-92.355-19.647-2.778-39.472-4.338-59.215-6.458zM511.43 278.487c-92.986 0.222-169.127 76.636-169.052 169.656 0.075 92.955 76.373 169.325 169.322 169.479 93.699 0.157 170.209-76.708 169.817-170.605-0.389-92.969-76.875-168.755-170.086-168.53zM775.95 446.692c0.949 145.681-115.575 263.745-261.789 265.243-146.295 1.502-265.178-115.828-266.11-262.629-0.925-145.712 115.572-263.745 261.789-265.243 146.275-1.502 265.151 115.821 266.11 262.629zM847.602 719.86c0.594 35.386-26.279 63.328-61.31 63.747-34.577 0.413-62.454-26.003-63.358-60.044-0.945-35.345 25.757-63.874 60.512-64.659 35.308-0.795 63.573 26.054 64.157 60.955z"/>
<glyph unicode="&#x2e;" glyph-name="plug-disconnected" d="M609.963 390.827c-3.917 3.892-9.315 6.297-15.275 6.297s-11.358-2.405-15.276-6.298l0.001 0.001-130.048-130.56-125.099 125.099 130.048 130.048c3.892 3.917 6.297 9.315 6.297 15.275s-2.405 11.358-6.298 15.276l-30.548 30.548c-3.917 3.892-9.315 6.297-15.275 6.297s-11.358-2.405-15.276-6.298l-130.047-130.047-32.597 32.597c-3.101 3.17-7.422 5.135-12.203 5.135s-9.101-1.965-12.2-5.132l-83.63-83.63c-37.202-37.444-60.196-89.045-60.196-146.015 0-45.244 14.502-87.1 39.111-121.175l-0.419 0.609-82.091-82.091c-11.749-11.749-19.016-27.981-19.016-45.909 0-35.857 29.068-64.926 64.926-64.926 17.929 0 34.16 7.267 45.909 19.016l82.091 82.091c33.426-24.103 75.209-38.549 120.366-38.549 57.155 0 108.904 23.143 146.389 60.568l-0.003-0.003 83.456 83.627c3.17 3.101 5.135 7.422 5.135 12.203s-1.965 9.101-5.132 12.2l-32.6 32.6 130.048 130.048c3.892 3.917 6.297 9.315 6.297 15.275s-2.405 11.358-6.298 15.276l0.001-0.001zM1005.056 941.056c-11.741 11.767-27.975 19.046-45.909 19.046s-34.168-7.28-45.908-19.045l-84.481-84.481c-33.426 24.103-75.209 38.549-120.366 38.549-57.155 0-108.904-23.143-146.389-60.568l0.003 0.003-84.139-83.627c-3.17-3.101-5.135-7.422-5.135-12.203s1.965-9.101 5.132-12.2l312.664-312.664c3.101-3.17 7.422-5.135 12.203-5.135s9.101 1.965 12.2 5.132l83.63 83.63c37.423 37.482 60.565 89.231 60.565 146.386 0 45.157-14.446 86.94-38.97 120.98l0.42-0.613 84.48 84.48c11.767 11.741 19.046 27.975 19.046 45.909s-7.28 34.168-19.045 45.908l-0.001 0.001z"/>
<glyph unicode="&#x2f;" glyph-name="pencil" d="M0-34.987c-0.395-1.591-0.622-3.418-0.622-5.298 0-6.68 2.864-12.692 7.432-16.873 4.214-4.6 10.225-7.464 16.906-7.464 1.88 0 3.707 0.227 5.455 0.655l312.163 95.029 674.133 674.133c4.857 4.876 7.86 11.602 7.86 19.029s-3.003 14.153-7.861 19.030l-208.212 208.895c-4.849 4.847-11.546 7.845-18.944 7.845s-14.095-2.998-18.944-7.845l-674.304-674.816zM88.235 24.917l60.757 199.168 139.093-139.093z"/>
<glyph unicode="&#x30;" glyph-name="unlock" d="M221.825 512v85.31c0 164.261 132.864 301.343 295.141 298.651 150.243-2.915 272.552-120.417 284.016-270.063 0.038-0.516 0.059-1.038 0.059-1.563 0-10.935-8.797-19.808-19.673-19.86h-125.449c-10.016 0.159-18.236 7.747-19.534 18.306-8.903 61.174-61.339 108.148-124.694 108.148-4.209 0-8.368-0.206-12.559-0.63-63.697-7.605-113.093-62.063-113.093-128.111 0-0.509 0.003-1.018 0.009-1.447v-88.741h445.952c35.346 0 64-28.654 64-64v-384c0-35.346-28.654-64-64-64h-640c-35.346 0-64 28.654-64 64v384c0 35.346 28.654 64 64 64h29.825z"/>
<glyph unicode="&#x31;" glyph-name="popup" d="M64 960h896c35.346 0 64-28.654 64-64v-896c0-35.346-28.654-64-64-64h-896c-35.346 0-64 28.654-64 64v896c0 35.346 28.654 64 64 64zM256 704c-35.346 0-64-28.654-64-64v-384c0-35.346 28.654-64 64-64h512c35.346 0 64 28.654 64 64v384c0 35.346-28.654 64-64 64h-512zM704 640c35.346 0 64-28.654 64-64s-28.654-64-64-64c-35.346 0-64 28.654-64 64s28.654 64 64 64z"/>
<glyph unicode="&#x32;" glyph-name="slide-in" d="M1024 704h-576c-35.346 0-64-28.654-64-64v-384c0-35.346 28.654-64 64-64h576v-192c0-35.346-28.654-64-64-64h-896c-35.346 0-64 28.654-64 64v896c0 35.346 28.654 64 64 64h896c35.346 0 64-28.654 64-64v-192zM896 640c35.346 0 64-28.654 64-64s-28.654-64-64-64c-35.346 0-64 28.654-64 64s28.654 64 64 64z"/>
<glyph unicode="&#x33;" glyph-name="embed" d="M128 128h768c35.346 0 64-28.654 64-64v0c0-35.346-28.654-64-64-64h-768c-35.346 0-64 28.654-64 64v0c0 35.346 28.654 64 64 64zM128 640h768c35.346 0 64-28.654 64-64v-256c0-35.346-28.654-64-64-64h-768c-35.346 0-64 28.654-64 64v256c0 35.346 28.654 64 64 64zM832 576c-35.346 0-64-28.654-64-64s28.654-64 64-64c35.346 0 64 28.654 64 64s-28.654 64-64 64zM128 896h768c35.346 0 64-28.654 64-64v0c0-35.346-28.654-64-64-64h-768c-35.346 0-64 28.654-64 64v0c0 35.346 28.654 64 64 64z"/>
<glyph unicode="&#x34;" glyph-name="copy" d="M736 64c0-70.692-57.308-128-128-128h-384c-70.692 0-128 57.308-128 128v576c0 70.692 57.308 128 128 128v-576c0-70.692 57.308-128 128-128h384zM416 960h192v-256c0-35.346 28.654-64 64-64h256v-384c0-70.692-57.308-128-128-128h-416c-53.019 0-96 42.981-96 96v608c0 70.692 57.308 128 128 128zM672 960l256-256h-224c-17.673 0-32 14.327-32 32v224z"/>
<glyph unicode="&#x35;" glyph-name="link" d="M937.837 873.837c-53.702 53.791-127.937 87.068-209.944 87.068-76.601 0-146.422-29.035-199.058-76.699l0.252 0.225-150.034-150.034c-25.673-25.71-46.631-56.139-61.458-89.87-31.665-15.309-58.252-32.532-81.502-53.399l0.273 0.241-150.205-149.693c-52.709-53.514-85.256-127.017-85.256-208.121 0-163.835 132.815-296.651 296.651-296.651 81.104 0 154.606 32.547 208.158 85.293l149.997 149.998c20.623 22.976 37.846 49.563 50.526 78.588 36.363 17.467 66.791 38.424 92.506 64.102l149.86 150.202c47.293 52.346 76.23 122.061 76.23 198.535 0 81.887-33.179 156.025-86.826 209.703zM404.516 128.793v0c-27.092-27.092-64.52-43.849-105.861-43.849-82.683 0-149.711 67.027-149.711 149.711 0 41.341 16.757 78.769 43.849 105.861v0l109.365 109.365c27.541-103.91 107.782-184.094 209.666-211.089zM485.855 421.684c-24.798 24.767-40.912 58.225-43.38 95.415 74.752-4.514 134.187-63.89 139.22-138.191-37.617 2.019-71.081 18.136-95.838 42.944zM840.435 564.883l-118.763-118.763c-27.478 103.889-107.663 184.074-209.496 211.088l107.479 110 9.228 9.228c26.164 22.926 60.662 36.91 98.428 36.91 82.673 0 149.693-67.019 149.693-149.693 0-37.766-13.985-72.264-37.059-98.6z"/>
<glyph unicode="&#x36;" glyph-name="unlink" horiz-adv-x="1025" d="M129.536 783.36l109.397-110.080c5.875-5.875 13.99-9.508 22.955-9.508 17.929 0 32.463 14.534 32.463 32.463 0 8.964-3.634 17.080-9.508 22.955l-108.885 109.568c-5.652 4.91-13.084 7.903-21.215 7.903-17.909 0-32.427-14.518-32.427-32.427 0-8.131 2.993-15.563 7.936-21.254zM318.635 826.88l39.765-150.357c3.88-13.945 16.466-24.008 31.403-24.008 17.972 0 32.541 14.569 32.541 32.541 0 3.036-0.416 5.974-1.193 8.762l-39.711 149.275c-3.878 13.899-16.427 23.926-31.317 23.926-17.927 0-32.459-14.532-32.459-32.459 0-3.036 0.417-5.975 1.196-8.762zM127.829 567.467v0l149.845-40.107c2.559-0.725 5.497-1.142 8.533-1.142 17.927 0 32.459 14.532 32.459 32.459 0 14.891-10.027 27.439-23.697 31.263l-149.562 40.332c-2.559 0.725-5.497 1.142-8.533 1.142-17.927 0-32.459-14.532-32.459-32.459 0-14.891 10.027-27.439 23.697-31.263zM895.147 112.64l-110.080 110.080c-5.875 5.875-13.99 9.508-22.955 9.508-17.929 0-32.463-14.534-32.463-32.463 0-8.964 3.634-17.080 9.508-22.955l109.568-109.568c5.771-5.373 13.536-8.671 22.072-8.671 17.909 0 32.427 14.518 32.427 32.427 0 8.493-3.265 16.224-8.609 22.005zM706.048 69.12l-40.448 150.357c-3.88 13.945-16.466 24.008-31.403 24.008-17.972 0-32.541-14.569-32.541-32.541 0-3.036 0.416-5.974 1.193-8.762l40.052-149.616c3.878-13.899 16.427-23.926 31.317-23.926 17.927 0 32.459 14.532 32.459 32.459 0 3.036-0.417 5.975-1.196 8.762zM896.853 328.533v0l-149.845 40.107c-2.559 0.725-5.497 1.142-8.533 1.142-17.927 0-32.459-14.532-32.459-32.459 0-14.891 10.027-27.439 23.697-31.263l150.074-40.161c2.559-0.725 5.497-1.142 8.533-1.142 17.927 0 32.459 14.532 32.459 32.459 0 14.891-10.027 27.439-23.697 31.263zM492.032 428.203c-40.919 40.905-97.441 66.205-159.872 66.205-58.335 0-111.51-22.088-151.619-58.358l0.196 0.174-114.347-114.347c-38.111-40.385-61.537-94.988-61.537-155.062 0-124.89 101.243-226.133 226.133-226.133 60.074 0 114.677 23.425 155.173 61.64l114.236 114.243c36.095 39.914 58.183 93.089 58.183 151.424 0 62.431-25.3 118.953-66.206 159.873zM417.963 192l-109.397-109.397c-20.662-20.514-49.128-33.193-80.555-33.193-63.151 0-114.345 51.194-114.345 114.345 0 31.724 12.919 60.43 33.783 81.145l109.404 109.404c19.827 17.113 45.846 27.537 74.3 27.537 62.963 0 114.005-51.042 114.005-114.005 0-28.453-10.424-54.472-27.661-74.446zM958.464 893.781c-40.919 40.905-97.441 66.205-159.872 66.205-58.335 0-111.51-22.088-151.619-58.358l0.196 0.174-114.347-114.347c-37.354-40.216-60.276-94.288-60.276-153.712 0-124.89 101.243-226.133 226.133-226.133 59.467 0 113.573 22.954 153.941 60.486l114.207 114.218c36.095 39.914 58.183 93.089 58.183 151.424 0 62.431-25.3 118.953-66.206 159.873zM884.224 658.091l-109.397-109.397c-19.918-17.349-46.131-27.926-74.814-27.926-63.058 0-114.176 51.118-114.176 114.176 0 29.023 10.829 55.518 28.668 75.662l-0.104-0.12 109.397 109.397c19.827 17.113 45.846 27.537 74.3 27.537 62.963 0 114.005-51.042 114.005-114.005 0-28.453-10.424-54.472-27.661-74.446z"/>
<glyph unicode="&#x37;" glyph-name="list-number" d="M384 832h576c35.346 0 64-28.654 64-64s-28.654-64-64-64h-576c-35.346 0-64 28.654-64 64s28.654 64 64 64zM384 512h576c35.346 0 64-28.654 64-64s-28.654-64-64-64h-576c-35.346 0-64 28.654-64 64s28.654 64 64 64zM384 192h576c35.346 0 64-28.654 64-64s-28.654-64-64-64h-576c-35.346 0-64 28.654-64 64s28.654 64 64 64zM85.76 687.36v108.16c-4.8-2.24-9.92-3.52-15.040-3.52-18.56 0-32.32 13.44-32.32 32 0 21.44 14.4 30.4 16.64 29.44 6.4-4.16 12.48-6.4 20.16-6.4 13.76 0 25.28 8.64 28.8 23.36h16.64c18.24 0 28.16-9.92 28.16-29.76v-153.28c0-19.52-9.92-29.76-28.16-29.76h-8c-17.6 0-26.88 10.24-26.88 29.76zM25.6 369.6v12.16c0 36.16 35.52 56.64 63.36 69.12 24 11.2 42.56 16.64 42.56 29.44 0 13.12-8.64 19.84-26.56 19.84-21.44 0-34.24-16-37.44-32.32 0-0.64-41.28-2.24-41.28 28.48s29.76 54.080 82.88 54.080c54.72 0 84.48-24.96 84.48-66.88 0-39.68-27.2-52.48-56.64-63.36-24.96-9.6-43.52-16.64-51.2-30.4h79.36c22.080 0 30.080-8.32 30.080-23.36v-2.56c0-16-7.68-24.96-30.080-24.96h-101.12c-29.76 0-38.4 4.16-38.4 30.72zM22.4 62.72c0 32 37.12 31.36 37.76 29.12 5.44-19.52 21.76-29.44 44.8-29.44 20.16 0 32.32 8.32 32.32 21.44s-7.68 18.88-24.32 18.88h-6.4c-20.8 0-29.44 6.72-29.44 20.8v3.2c0 14.080 9.6 21.12 28.8 21.12h11.2c11.2 0 18.24 6.080 18.24 15.68 0 11.52-11.84 18.88-31.36 18.88-27.2 0-37.44-15.040-40.96-27.52-0.32-2.56-36.8-3.52-36.8 28.8 0 26.56 30.4 46.72 79.040 46.72 57.92 0 89.28-20.16 89.28-57.92 0-20.48-13.44-34.88-37.76-41.92 26.56-8.64 40.96-26.56 40.96-51.84 0-40.96-33.28-64.32-92.16-64.32-51.52 0-83.2 22.080-83.2 48.32z"/>
<glyph unicode="&#x38;" glyph-name="list-bullet" d="M384 832h576c35.346 0 64-28.654 64-64s-28.654-64-64-64h-576c-35.346 0-64 28.654-64 64s28.654 64 64 64zM384 512h576c35.346 0 64-28.654 64-64s-28.654-64-64-64h-576c-35.346 0-64 28.654-64 64s28.654 64 64 64zM384 192h576c35.346 0 64-28.654 64-64s-28.654-64-64-64h-576c-35.346 0-64 28.654-64 64s28.654 64 64 64zM64 864h64c35.346 0 64-28.654 64-64v-64c0-35.346-28.654-64-64-64h-64c-35.346 0-64 28.654-64 64v64c0 35.346 28.654 64 64 64zM64 544h64c35.346 0 64-28.654 64-64v-64c0-35.346-28.654-64-64-64h-64c-35.346 0-64 28.654-64 64v64c0 35.346 28.654 64 64 64zM64 224h64c35.346 0 64-28.654 64-64v-64c0-35.346-28.654-64-64-64h-64c-35.346 0-64 28.654-64 64v64c0 35.346 28.654 64 64 64z"/>
<glyph unicode="&#x39;" glyph-name="lock" d="M222.575 512l0.016 102.193c7.191 156.872 134.178 281.807 289.779 281.807s282.589-124.933 289.803-282.466v-101.534h29.827c35.346 0 64-28.654 64-64v-384c0-35.346-28.654-64-64-64h-640c-35.346 0-64 28.654-64 64v384c0 35.346 28.654 64 64 64h30.575zM386.045 512h251.758v101.532c0 70.902-56.355 128.377-125.878 128.377s-125.88-57.478-125.88-128.377v-101.532z"/>
<glyph unicode="&#x3a;" glyph-name="arrow-skip-start" d="M794.729 99.707c-4.704-4.25-10.109-7.845-16-10.573l-0.397-0.165c-5.848-2.66-12.683-4.209-19.879-4.209s-14.031 1.549-20.188 4.334l0.309-0.125c-6.234 2.89-11.594 6.486-16.301 10.782l0.050-0.044-312.112 312.112c-4.671 4.572-8.409 10.079-10.913 16.22l-0.116 0.322c-2.207 5.658-3.485 12.207-3.485 19.054 0 0.187 0.001 0.376 0.003 0.562v-0.028c0 0.078-0.001 0.17-0.001 0.262 0 7.179 1.44 14.021 4.047 20.254l-0.129-0.346c2.401 6.771 6.010 12.577 10.613 17.434l-0.020-0.022 312.837 310.661c4.498 4.64 9.904 8.372 15.934 10.909l0.317 0.119c5.872 2.541 12.708 4.020 19.891 4.020 14.167 0 26.989-5.751 36.262-15.046l0.001-0.001 35.549-36.566c9.237-9.35 14.944-22.209 14.944-36.398 0-7.126-1.439-13.917-4.043-20.097l0.128 0.341c-2.696-6.333-6.42-11.732-11.019-16.244l-0.007-0.007-237.24-239.271 237.24-238.546c4.607-4.519 8.332-9.917 10.904-15.928l0.123-0.324c2.479-5.769 3.919-12.482 3.919-19.533 0-0.121-0.001-0.244-0.002-0.364v0.018c0-0.079 0.001-0.172 0.001-0.266 0-7.227-1.439-14.118-4.047-20.403l0.131 0.353c-2.552-6.29-6.299-11.62-10.995-15.931l-0.031-0.028-35.549-37.291zM294.13 99.707h-87.060c-16.027 0-29.019 12.992-29.019 29.019v0 638.444c0 16.027 12.992 29.019 29.019 29.019v0h87.060c16.027 0 29.019-12.992 29.019-29.019v0-638.444c0-16.027-12.992-29.019-29.019-29.019v0z"/>
<glyph unicode="&#x3b;" glyph-name="code" d="M137.076 447.767c22.144-13.682 39.454-28.996 51.93-45.943s21.209-38.558 26.199-64.833c4.99-26.275 7.485-59.935 7.485-100.981 0-30.784 0.702-53.483 2.105-68.098s4.211-25.731 8.421-33.349c4.211-7.618 9.279-12.593 15.205-14.926s16.062-4.586 30.409-6.763c11.852-1.555 21.676-7.307 29.474-17.258s11.696-23.010 11.696-39.18c0-37.625-22.924-56.437-68.772-56.437-28.382 0-53.723 5.908-76.023 17.724s-39.532 28.529-51.696 50.141c-12.164 21.611-18.402 46.409-18.713 74.395-0.936 47.265-1.871 85.2-2.807 113.807s-2.339 47.109-4.211 55.504c-4.678 20.834-11.618 36.536-20.819 47.109s-21.209 20.445-36.023 29.618c-14.815 9.173-25.341 17.413-31.579 24.72s-9.357 18.89-9.357 34.749c0 23.010 9.045 40.268 27.135 51.773 22.456 13.993 38.44 25.886 47.953 35.681s16.218 22.388 20.117 37.78c3.899 15.392 6.16 32.183 6.784 50.374s1.559 61.956 2.807 131.298c0.936 42.911 14.581 77.193 40.936 102.846s61.52 38.48 105.497 38.48c45.848 0 68.772-18.501 68.772-55.504 0-16.791-3.821-30.007-11.462-39.646s-17.544-15.237-29.708-16.791c-18.090-2.488-30.721-6.219-37.895-11.194s-11.852-14.615-14.035-28.918c-2.183-14.304-3.587-41.978-4.211-83.023-0.624-40.113-3.041-72.995-7.251-98.649s-12.476-47.497-24.795-65.533c-12.32-18.035-30.175-34.36-53.567-48.974zM886.924 447.767c-22.144-13.682-39.454-28.996-51.93-45.943s-21.209-38.558-26.199-64.833c-4.99-26.275-7.485-59.935-7.485-100.981 0-30.784-0.702-53.483-2.105-68.098s-4.211-25.731-8.421-33.349c-4.211-7.618-9.279-12.593-15.205-14.926s-16.062-4.586-30.409-6.763c-11.852-1.555-21.676-7.307-29.474-17.258s-11.696-23.010-11.696-39.18c0-37.625 22.924-56.437 68.772-56.437 28.382 0 53.723 5.908 76.023 17.724s39.532 28.529 51.696 50.141c12.164 21.611 18.402 46.409 18.713 74.395 0.936 47.265 1.871 85.2 2.807 113.807s2.339 47.109 4.211 55.504c4.678 20.834 11.618 36.536 20.819 47.109s21.209 20.445 36.023 29.618c14.815 9.173 25.341 17.413 31.579 24.72s9.357 18.89 9.357 34.749c0 23.010-9.045 40.268-27.135 51.773-22.456 13.993-38.44 25.886-47.953 35.681s-16.218 22.388-20.117 37.78c-3.899 15.392-6.16 32.183-6.784 50.374s-1.559 61.956-2.807 131.298c-0.936 42.911-14.581 77.193-40.936 102.846s-61.52 38.48-105.497 38.48c-45.848 0-68.772-18.501-68.772-55.504 0-16.791 3.821-30.007 11.462-39.646s17.544-15.237 29.708-16.791c18.090-2.488 30.721-6.219 37.895-11.194s11.852-14.615 14.035-28.918c2.183-14.304 3.587-41.978 4.211-83.023 0.624-40.113 3.041-72.995 7.251-98.649s12.476-47.497 24.795-65.533c12.32-18.035 30.175-34.36 53.567-48.974z"/>
<glyph unicode="&#x3c;" glyph-name="style-type" d="M600.183 22.811c0-0.042 0-0.092 0-0.143 0-15.931-7.276-30.162-18.685-39.552-11.343-10.55-26.453-17.019-43.073-17.137-0.026 0-0.030 0-0.033 0-11.14 0-21.521 3.244-30.253 8.839-9.496 6.164-17 15.152-21.316 25.776l-44.678 99.359h-283.307l-44.373-98.645c-4.412-10.932-11.786-19.9-21.129-26.154-8.647-5.591-18.965-8.837-30.041-8.837-0.251 0-0.501 0.002-0.75 0.005-16.766 0.139-32.034 6.598-43.532 17.111-11.636 9.226-19.065 23.426-19.065 39.361 0 0.006 0 0.013 0 0.019 0.497 9.522 2.9 18.373 6.832 26.334l225.616 474.401c5.839 13.038 15.402 23.536 27.33 30.381 11.701 6.853 25.389 10.801 39.998 10.801s28.297-3.948 40.055-10.835c11.808-6.995 21.526-17.206 27.932-29.427l225.816-475.714c3.869-7.822 6.285-16.984 6.652-26.671zM203.041 199.11h194.731l-96.939 217.429zM980.428 346.736q43.52-43.861 43.52-134.144v-188.928c0.067-1.036 0.105-2.247 0.105-3.466 0-15.424-6.089-29.425-15.995-39.732-10.73-9.683-25.041-15.619-40.738-15.619-1.273 0-2.536 0.039-3.789 0.116-0.367-0.026-1-0.037-1.635-0.037-16.095 0-30.664 6.534-41.2 17.094-10.549 10.354-17.086 24.76-17.086 40.694 0 0.514 0.007 1.026 0.020 1.537l-0.002 5.727c-7.996-20.951-22.288-37.999-40.536-49.25-18.994-11.008-41.281-17.361-65.052-17.361-1.28 0-2.555 0.018-3.826 0.055-0.297-0.009-0.87-0.012-1.443-0.012-26.924 0-52.375 6.304-74.959 17.516-20.968 10.24-38.97 26.053-51.962 45.498-12.607 18.963-19.936 41.675-19.936 66.099 0 0.451 0.003 0.902 0.007 1.353-0.104 1.659-0.163 3.679-0.163 5.713 0 24.818 8.756 47.591 23.347 65.398 19.243 18.899 44.285 32.287 72.24 37.242 38.061 7.624 80.858 11.917 124.658 11.917 5.548 0 11.080-0.069 16.595-0.206l20.858 0.016v15.019c0.19 1.951 0.299 4.218 0.299 6.51 0 16.996-5.972 32.597-15.932 44.819-11.911 9.935-27.533 16.048-44.582 16.048-2.294 0-4.563-0.111-6.8-0.327-37.555-3.095-72.498-12.15-104.744-26.231-7.318-4.335-18.437-7.661-30.26-8.382-0.641-0.028-1.133-0.038-1.627-0.038-11.135 0-21.095 5.030-27.732 12.942-6.891 8.683-11.027 19.729-11.027 31.74 0 0.861 0.021 1.718 0.063 2.569-0.029 0.454-0.044 1.126-0.044 1.802 0 9.556 2.815 18.454 7.661 25.911 6.169 8.019 14.031 14.681 23.056 19.429 21.018 11.107 44.941 19.783 70.137 24.97 26.728 6.037 55.41 9.331 84.859 9.347q90.294 0 133.814-43.861zM880.929 75.035c14.043 15.93 22.615 36.976 22.615 60.024 0 1.398-0.032 2.789-0.094 4.172l0.007 13.969h-14.165c-4.533 0.256-9.837 0.403-15.176 0.403-28.403 0-55.84-4.137-81.741-11.842-13.531-4.937-24.486-19.494-24.486-36.61 0-0.748 0.021-1.491 0.062-2.228-0.023-0.401-0.033-0.993-0.033-1.586 0-13.9 5.691-26.471 14.87-35.51 9.691-9.115 22.769-14.712 37.154-14.712 0.62 0 1.238 0.010 1.853 0.031 0.789-0.038 1.821-0.059 2.857-0.059 22.309 0 42.392 9.534 56.396 24.749zM571.852 565.36l19.797 53.589c19.302 51.135 58.945 90.778 108.798 109.654l55.042 19.882-53.589 19.797c-51.135 19.302-90.778 58.945-109.654 108.798l-20.394 55.554-19.797-53.76c-19.302-51.135-58.945-90.778-108.798-109.654l-55.042-20.735 53.589-19.797c51.122-19.322 90.758-58.958 109.653-108.798zM889.633 473.2l13.483 36.352c13.184 34.97 40.294 62.080 74.388 74.973l37.569 13.773-36.693 13.653c-34.97 13.184-62.080 40.294-74.973 74.388l-13.773 37.569-13.483-36.693c-13.221-35-40.396-62.12-74.557-74.974l-37.571-13.772 36.693-13.483c35-13.221 62.12-40.396 74.974-74.557z"/>
<glyph unicode="&#x3d;" glyph-name="plus" d="M592 528h224c44.183 0 80-35.817 80-80s-35.817-80-80-80h-224v-224c0-44.183-35.817-80-80-80s-80 35.817-80 80v224h-224c-44.183 0-80 35.817-80 80s35.817 80 80 80h224v224c0 44.183 35.817 80 80 80s80-35.817 80-80v-224z"/>
<glyph unicode="&#x3e;" glyph-name="phone" d="M96 644.091c0.383 6.356 0.719 12.715 1.158 19.067 2.407 34.835 9.752 68.393 22.669 100.482 10.283 25.546 23.75 49 40.315 70.389 11.371 14.684 24.127 27.819 37.886 39.915 11.775 10.351 23.209 21.152 34.745 31.815 7.805 7.214 16.098 13.568 25.71 17.741 16.771 7.281 32.938 5.537 48.531-3.861 15.58-9.389 27.495-23.14 38.498-37.917 14.867-19.967 26.85-42.028 39.684-63.47 9.421-15.74 18.561-31.656 26.011-48.611 7.548-17.177 13.557-34.88 15.397-53.95 2.536-26.278-3.773-49.817-20.485-69.211-9.59-11.13-20.792-20.641-31.103-31.069-10.013-10.126-21.434-18.212-32.501-26.842-13.34-10.402-23.591-23.417-27.874-41.004-3.58-14.703-2.625-29.374 0.561-43.979 4.338-19.88 12.228-38.199 21.467-55.904 16.31-31.257 36.336-59.679 57.602-87.145 20.172-26.052 41.282-51.184 64.197-74.492 19.154-19.485 39.281-37.668 62.295-51.801 13.611-8.358 27.832-14.956 43.525-17.296 20.317-3.030 38.018 3.112 53.341 17.542 3.092 2.911 6.23 5.854 8.874 9.211 11.704 14.855 25.651 27.129 39.36 39.64 7.778 7.098 15.694 14.267 24.381 19.919 21.681 14.106 44.907 15.397 68.798 7.237 19.479-6.653 36.955-17.52 52.816-31.050 19.334-16.493 38.017-33.873 56.871-51.008 13.325-12.112 25.947-25.026 36.91-39.689 9.418-12.596 17.396-26.049 20.847-42.074 0.578-2.685 1.014-5.405 1.515-8.109v-9.888c-0.282-1.5-0.581-2.997-0.845-4.501-2.861-16.304-11.322-29.058-22.392-39.964-10.796-10.635-22.351-20.414-32.79-31.428-23.2-24.478-49.419-44.015-79.015-58.372-29.561-14.341-60.527-22.693-92.863-25.201-5.43-0.421-10.862-0.81-16.293-1.214h-12.641c-1.228 0.156-2.453 0.36-3.685 0.46-8.106 0.661-16.235 1.068-24.315 1.989-29.335 3.343-57.659 11.278-85.211 22.44-43.679 17.696-83.615 42.727-121.293 72.116-32.133 25.064-62.033 52.964-90.438 82.743-33.21 34.815-64.16 71.844-93.455 110.497-28.62 37.762-55.164 77.111-78.554 118.856-27.723 49.479-50.598 101.29-64.649 157.281-6.417 25.57-10.826 51.513-12.438 77.972-0.368 6.048-0.749 12.095-1.123 18.143v13.596z"/>
<glyph unicode="&#x3f;" glyph-name="question" d="M512 960c-282.77 0-512-229.23-512-512s229.23-512 512-512c282.77 0 512 229.23 512 512s-229.23 512-512 512zM552.789 170.667c-11.513-10.623-26.956-17.137-43.921-17.137-1.059 0-2.113 0.025-3.16 0.076-0.751-0.050-1.805-0.076-2.864-0.076-16.965 0-32.408 6.514-43.966 17.177-11.108 11.186-18 26.656-18 43.736s6.893 32.549 18.048 43.779c12.419 10.757 28.738 17.313 46.589 17.313s34.17-6.556 46.681-17.392c11.062-11.151 17.955-26.621 17.955-43.7s-6.893-32.549-18.048-43.779zM676.352 527.531c-14.593-25.881-32.311-48.004-53.036-66.882l-32.638-31.081c-18.585-17.435-31.085-41.162-34.087-67.765l-1.582-24.907h-102.4c-0.104 2.643-0.163 5.746-0.163 8.863 0 28.82 5.063 56.457 14.347 82.072 11.385 24.359 28.247 46.249 49.016 63.625 18.67 15.401 34.551 32.639 47.867 51.794 8.039 12.997 12.482 27.729 12.496 43.498q0 68.271-62.464 68.271c-0.543 0.017-1.181 0.026-1.822 0.026-17.84 0-33.952-7.398-45.435-19.293-11.575-12.699-18.652-29.637-18.652-48.228 0-0.751 0.012-1.5 0.035-2.246l-116.056 0.109c-0.089 1.957-0.14 4.251-0.14 6.558 0 44.597 19.006 84.754 49.36 112.815 32.988 27.163 75.53 43.576 121.907 43.576 3.801 0 7.575-0.11 11.321-0.328q84.816 0.024 131.067-40.936c28.949-26.748 47.016-64.908 47.016-107.288 0-3.024-0.092-6.026-0.273-9.004 0.020 0.268 0.021 0.101 0.021-0.066 0-23.235-5.614-45.158-15.561-64.488z"/>
<glyph unicode="&#x40;" glyph-name="plus-circle" d="M576 512v128c0 35.346-28.654 64-64 64s-64-28.654-64-64v-128h-128c-35.346 0-64-28.654-64-64s28.654-64 64-64h128v-128c0-35.346 28.654-64 64-64s64 28.654 64 64v128h128c35.346 0 64 28.654 64 64s-28.654 64-64 64h-128zM512-64c-282.77 0-512 229.23-512 512s229.23 512 512 512c282.77 0 512-229.23 512-512s-229.23-512-512-512z"/>
<glyph unicode="&#x41;" glyph-name="paperclip" d="M248.822-63.976c-51.495 1.136-97.52 23.616-129.751 58.91-61.91 61.751-69.59 121.313-65.321 160.396 7.914 52.328 33.104 97.701 69.471 131.097l392.695 392.679c109.568 109.568 182.443 69.462 216.235 35.84 40.789-40.789 68.267-111.275-36.693-215.381l-361.301-361.472-70.315 70.998 361.131 360.448c55.636 55.636 42.839 68.267 36.693 74.752s-19.797 19.797-75.435-35.84l-392.534-392.534c-20.474-18.438-35.098-43.015-40.978-70.817-3.054-26.463 8.893-52.063 36.37-79.711 34.133-34.133 59.904-30.549 68.267-29.355 30.677 7.419 56.812 23.685 76.316 45.914l465.551 465.744c32.165 29.338 56.871 66.31 71.298 108.071 14.547 53.038-2.178 100.313-50.648 148.782-51.2 51.2-133.291 104.448-257.536-19.968l-428.715-429.739c-9.043-9.107-21.57-14.742-35.413-14.742-27.56 0-49.901 22.344-49.901 49.901 0 13.716 5.534 26.14 14.491 35.16l429.224 429.736c133.291 132.779 278.528 140.117 398.678 19.797 93.184-93.184 93.184-183.979 76.627-243.712-19.472-60.91-53.065-112.682-97.048-153.387l-465.811-465.621c-34.177-37.539-79.859-64.066-131.449-74-8.080-1.219-15.674-1.778-23.4-1.778-0.281 0-0.562 0.001-0.843 0.002z"/>
<glyph unicode="&#x42;" glyph-name="bold" d="M684.799 460.033c72.576 14.976 132.48 80.64 132.48 176.127 0 102.528-74.88 195.84-221.184 195.84h-368.767c-19.512 0-35.328-15.816-35.328-35.328v-697.344c0-19.511 15.816-35.328 35.328-35.328h381.439c147.456 0 223.233 92.16 223.233 208.384 0 95.616-63.999 175.616-147.201 187.649zM355.455 688h204.801c55.296 0 89.599-33.408 89.599-80.64 0-49.536-34.56-80.64-89.599-80.64h-204.801v161.28zM567.294 207.871h-211.839v175.104h211.968c63.36 0 97.92-39.168 97.92-87.552 0-55.296-36.864-87.552-97.92-87.552h-0.129z"/>
<glyph unicode="&#x43;" glyph-name="crop" d="M993.343 183.651h-90.771v591.382c0 0.856 0 1.713 0 2.569 0 33.106-26.837 59.943-59.943 59.943h-592.581v88.202c0 18.918-15.336 34.253-34.253 34.253h-57.032c-18.918 0-34.253-15.336-34.253-34.253v0-88.373h-90.257c-18.918 0-34.253-15.336-34.253-34.253v-57.374c0-18.918 15.336-34.253 34.253-34.253h90.771v-590.697c0-0.856 0-1.713 0-2.569 0-33.106 26.837-59.943 59.943-59.943h592.581v-88.716c0-18.918 15.336-34.253 34.253-34.253h57.374c18.918 0 34.253 15.336 34.253 34.253v89.058h89.915c18.918 0 34.253 15.336 34.253 34.253v56.86c0 18.918-15.336 34.253-34.253 34.253zM249.535 183.993v528.527h528.013v-528.87h-527.5z"/>
<glyph unicode="&#x44;" glyph-name="photo-picture" d="M128 831.909h768c70.692 0 128-57.308 128-128v-512c0-70.692-57.308-128-128-128h-768c-70.692 0-128 57.308-128 128v512c0 70.692 57.308 128 128 128zM864 192c17.673 0 32 14.327 32 32v448c0 17.673-14.327 32-32 32h-704c-17.673 0-32-14.327-32-32v-277.114c0-10.479 5.131-20.294 13.735-26.275 14.511-10.087 34.453-6.501 44.54 8.011l5.468 7.866c3.088 5.029 9.354 8.471 16.582 8.471s13.494-3.441 16.631-8.559l42.74-61.863 174.711 252.92c5.545 10.301 17.931 17.472 32.319 17.472 14.004 0 26.108-6.793 31.951-16.825l262.042-379.694c0.826-1.341 1.457-2.78 1.886-4.41h93.395zM736 640c53.019 0 96-42.981 96-96s-42.981-96-96-96c-53.019 0-96 42.981-96 96s42.981 96 96 96z"/>
<glyph unicode="&#x45;" glyph-name="user-reputation-points" d="M957.76 551.040c-22.249-102.144-213.248-181.888-445.76-181.888-247.446 0-448 90.346-448 201.898v-123.051c0-111.552 200.555-201.898 448-201.898s448 90.347 448 201.898c-0.017 4.737-0.764 39.084-2.24 103.042zM512 123.051c-247.446 0-448 90.347-448 201.897v-123.051c0-111.552 200.555-201.897 448-201.897s448 90.347 448 201.897v123.051c0-111.552-200.555-201.897-448-201.897zM960 694.101c0-111.702-200.555-201.301-448-201.301s-448 89.6-448 201.301c0 111.701 200.555 201.899 448 201.899s448-90.347 448-201.899z"/>
<glyph unicode="&#x46;" glyph-name="animation-video" d="M952.182 832l0.031-0.002c39.701-0.323 71.788-33.5 71.788-74.38 0 0 0 0 0-0.002v-619.234c0-0.002 0-0.003 0-0.003 0-40.88-32.087-74.058-71.818-74.38h-879.809c-39.971 0-72.373 33.303-72.373 74.383v619.234c0 41.082 32.403 74.383 72.373 74.383h879.809zM128 736c-17.673 0-32-14.327-32-32v-64c0-17.673 14.327-32 32-32h96c17.673 0 32 14.327 32 32v64c0 17.673-14.327 32-32 32h-96zM352 736c-17.673 0-32-14.327-32-32v-64c0-17.673 14.327-32 32-32h96c17.673 0 32 14.327 32 32v64c0 17.673-14.327 32-32 32h-96zM576 736c-17.673 0-32-14.327-32-32v-64c0-17.673 14.327-32 32-32h96c17.673 0 32 14.327 32 32v64c0 17.673-14.327 32-32 32h-96zM800 736c-17.673 0-32-14.327-32-32v-64c0-17.673 14.327-32 32-32h96c17.673 0 32 14.327 32 32v64c0 17.673-14.327 32-32 32h-96zM128 288c-17.673 0-32-14.327-32-32v-64c0-17.673 14.327-32 32-32h96c17.673 0 32 14.327 32 32v64c0 17.673-14.327 32-32 32h-96zM352 288c-17.673 0-32-14.327-32-32v-64c0-17.673 14.327-32 32-32h96c17.673 0 32 14.327 32 32v64c0 17.673-14.327 32-32 32h-96zM576 288c-17.673 0-32-14.327-32-32v-64c0-17.673 14.327-32 32-32h96c17.673 0 32 14.327 32 32v64c0 17.673-14.327 32-32 32h-96zM800 288c-17.673 0-32-14.327-32-32v-64c0-17.673 14.327-32 32-32h96c17.673 0 32 14.327 32 32v64c0 17.673-14.327 32-32 32h-96z"/>
<glyph unicode="&#x47;" glyph-name="thumbnails" d="M239.765 896h-144.405c-17.32 0-31.36-14.040-31.36-31.36v-144.405c0-17.32 14.040-31.36 31.36-31.36h144.405c17.32 0 31.36 14.040 31.36 31.36v144.405c0 17.32-14.040 31.36-31.36 31.36zM584.128 896h-144.256c-17.32 0-31.36-14.040-31.36-31.36v-144.405c0-17.32 14.040-31.36 31.36-31.36h144.405c17.32 0 31.36 14.040 31.36 31.36v144.405c0 0 0 0 0 0 0 17.32-14.040 31.36-31.36 31.36-0.052 0-0.105 0-0.158 0zM960 864.64c0 17.32-14.040 31.36-31.36 31.36h-144.405c-17.32 0-31.36-14.040-31.36-31.36v0-144.256c0-17.32 14.040-31.36 31.36-31.36h144.405c17.32 0 31.36 14.040 31.36 31.36v144.256zM239.765 551.488h-144.405c-17.32 0-31.36-14.040-31.36-31.36v-144.405c0-17.32 14.040-31.36 31.36-31.36h144.405c17.32 0 31.36 14.040 31.36 31.36v144.405c0 17.32-14.040 31.36-31.36 31.36zM584.128 551.488h-144.256c-17.32 0-31.36-14.040-31.36-31.36v-144.405c0-17.32 14.040-31.36 31.36-31.36h144.405c17.32 0 31.36 14.040 31.36 31.36v144.405c0 17.32-14.040 31.36-31.36 31.36zM928.64 551.488h-144.405c-17.32 0-31.36-14.040-31.36-31.36v0-144.256c0-17.32 14.040-31.36 31.36-31.36h144.405c17.32 0 31.36 14.040 31.36 31.36v144.256c0 17.32-14.040 31.36-31.36 31.36zM239.765 206.976h-144.405c-17.32 0-31.36-14.040-31.36-31.36v-144.256c0-17.32 14.040-31.36 31.36-31.36h144.405c17.32 0 31.36 14.040 31.36 31.36v144.256c0 17.32-14.040 31.36-31.36 31.36zM584.128 206.976h-144.256c-17.32 0-31.36-14.040-31.36-31.36v-144.256c0-17.32 14.040-31.36 31.36-31.36h144.405c17.32 0 31.36 14.040 31.36 31.36v144.256c0 17.32-14.040 31.36-31.36 31.36zM928.64 206.976h-144.405c-17.32 0-31.36-14.040-31.36-31.36v-144.256c0-17.32 14.040-31.36 31.36-31.36h144.405c17.32 0 31.36 14.040 31.36 31.36v144.256c0 17.32-14.040 31.36-31.36 31.36z"/>
<glyph unicode="&#x48;" glyph-name="refresh" d="M716.894 672.58c-1.28 1.166-2.571 2.322-3.872 3.467-69.009 60.732-161.584 87.586-253.821 71.323-165.344-29.155-275.747-186.827-246.593-352.171s186.827-275.747 352.171-246.593c77.947 13.744 145.751 56.436 191.797 118.844 26.232 35.553 76.318 43.109 111.871 16.877s43.109-76.318 16.877-111.871c-70.189-95.128-173.971-160.472-292.762-181.418-252.367-44.499-493.024 124.011-537.524 376.378s124.011 493.024 376.378 537.524c140.63 24.797 282.185-16.266 387.309-108.781 5.96-5.245 11.78-10.637 17.455-16.171l48.279 43.47c11.75 10.579 26.999 16.435 42.81 16.439 35.346 0.008 64.006-28.639 64.014-63.986l0.048-215.702c0-2.244-0.117-4.487-0.352-6.718-3.703-35.152-35.2-60.646-70.352-56.944l-214.515 22.595c-15.724 1.656-30.278 9.074-40.857 20.824-23.651 26.267-21.53 66.734 4.737 90.386l46.901 42.23z"/>
<glyph unicode="&#x49;" glyph-name="info" d="M512 960c70.667 0 137-13.333 199-40 62.667-26.667 117.166-63.166 163.5-109.5s82.833-100.833 109.5-163.5c26.667-62 40-128.333 40-199s-13.333-137-40-199c-26.667-62.667-63.166-117.166-109.5-163.5s-100.833-82.833-163.5-109.5c-62-26.667-128.333-40-199-40s-137 13.333-199 40c-62.667 26.667-117.166 63.166-163.5 109.5s-82.833 100.833-109.5 163.5c-26.667 62-40 128.333-40 199s13.333 137 40 199c26.667 62.667 63.166 117.166 109.5 163.5s100.833 82.833 163.5 109.5c62 26.667 128.333 40 199 40zM512 512c-35.346 0-64-28.654-64-64v-192c0-35.346 28.654-64 64-64s64 28.654 64 64v192c0 35.346-28.654 64-64 64zM512 576c35.346 0 64 28.654 64 64s-28.654 64-64 64c-35.346 0-64-28.654-64-64s28.654-64 64-64z"/>
<glyph unicode="&#x4a;" glyph-name="home" d="M936.881 602.057l-412.161 319.201c-5.37 4.22-12.228 6.767-19.68 6.767s-14.31-2.547-19.748-6.819l-398.972-319.469c-7.236-5.902-11.824-14.814-11.84-24.797v-576.965c0-17.673 14.327-32 32-32h236.959c17.673 0 32 14.327 32 32v353.281h273.121v-353.281c0-17.673 14.327-32 32-32h236.959c17.673 0 32 14.327 32 32v576.962c-0.037 10.179-4.821 19.232-12.251 25.068z"/>
<glyph unicode="&#x4b;" glyph-name="heart" d="M984.615 578.511c0 2.507 0 5.162 0 7.67s0 5.604 0 8.554c0 2.95 0 9.586 0 14.748 0 2.065 0 3.981 0 5.899 0 6.047-0.759 12.093-1.519 18.139 0 0.885 0 1.771 0 2.507-6.367 48.931-29.099 91.815-62.608 124.154-46.486 44.413-110.252 71.819-180.597 71.819s-134.113-27.408-180.624-71.843c-35.29-35.503-39.688-47.3-46.966-47.3s-11.978 11.354-47.458 46.452c-45.645 44.199-108.596 71.522-178.109 71.522-0.231 0-0.463 0-0.693-0.002-0.924 0.014-2.059 0.019-3.195 0.019-69.737 0-132.896-27.384-178.73-71.7-33.584-32.102-56.491-74.702-63.092-122.331-0.125-1.975-0.125-2.859-0.125-3.596 0-6.047-1.212-11.945-1.519-18.139 0-1.966 0-3.932 0-5.899 0-4.72 0-9.586 0-14.748s0-5.604 0-8.407c0-2.803 0-5.309 0-7.817 7.231-60.554 28.069-115.236 59.461-162.689l-0.933 1.507c2.121-3.244 3.639-6.636 5.913-9.88 85.517-129.476 333.726-343.153 408.175-343.153 74.599 0 322.657 214.27 408.477 343.745 2.123 3.244 3.792 6.636 5.913 9.88 30.401 46.27 51.058 101.344 57.763 160.506l0.461 0.382z"/>
<glyph unicode="&#x4c;" glyph-name="lightbulb" d="M858.453 613.355c0 0.114 0 0.249 0 0.384 0 191.341-155.112 346.453-346.453 346.453s-346.453-155.112-346.453-346.453c0-103.281 45.193-196.007 116.883-259.48 16.89-14.701 27.326-35.713 27.501-59.166v-44.063c0-0.051 0-0.111 0-0.171 0-23.187 18.797-41.984 41.984-41.984 0 0 0 0 0 0h320.171c23.187 0 41.984 18.797 41.984 41.984v44.203c0.203 23.426 10.635 44.375 27.040 58.628 72.14 63.639 117.344 156.172 117.344 259.263 0 0.142 0 0.283 0 0.425zM695.978 74.389h-367.957c-9.991 0-18.091 8.099-18.091 18.091v39.424c0 9.991 8.099 18.091 18.091 18.091h367.957c9.991 0 18.091-8.099 18.091-18.091v-39.424c0-9.991-8.099-18.091-18.091-18.091zM631.125-64.192h-238.933c-9.991 0-18.091 8.099-18.091 18.091v39.253c0 9.991 8.099 18.091 18.091 18.091h238.933c9.991 0 18.091-8.099 18.091-18.091v-39.424c-0.097-9.918-8.159-17.92-18.090-17.92 0 0-0.001 0-0.001 0z"/>
<glyph unicode="&#x4d;" glyph-name="help-support" d="M989.867 631.637c-7.098 18.287-24.554 31.016-44.983 31.016-6.033 0-11.807-1.11-17.128-3.137l-14.006-5.18c-44.074 84.36-111.225 151.511-193.089 194.394l2.796 15.526c1.895 4.965 2.992 10.707 2.992 16.706 0 20.352-12.633 37.754-30.485 44.791-54.809 21.677-117.927 34.179-183.964 34.179s-129.155-12.502-187.114-35.269c-14.81-5.894-27.539-23.351-27.539-43.78 0-6.033 1.11-11.807 3.137-17.128l5.18-14.006c-84.36-44.074-151.511-111.225-194.394-193.089l-15.526 2.796c-4.965 1.895-10.707 2.992-16.706 2.992-20.352 0-37.754-12.633-44.791-30.485-21.677-54.809-34.179-117.927-34.179-183.964s12.502-129.155 35.269-187.114c5.894-14.81 23.351-27.539 43.78-27.539 6.033 0 11.807 1.11 17.128 3.137l14.006 5.18c44.083-84.353 111.231-151.501 193.089-194.393l-2.795-15.527c-1.895-4.965-2.992-10.707-2.992-16.706 0-20.352 12.633-37.754 30.485-44.791 54.785-21.656 117.873-34.146 183.878-34.146s129.093 12.49 187.029 35.235c14.81 5.895 27.539 23.351 27.539 43.781 0 6.033-1.11 11.807-3.137 17.128l-5.18 14.006c84.422 44.057 151.629 111.21 194.564 193.091l15.527-2.797c4.965-1.895 10.707-2.992 16.706-2.992 20.352 0 37.754 12.633 44.791 30.485 21.656 54.785 34.146 117.873 34.146 183.878s-12.49 129.093-35.235 187.029zM305.152 365.397l-226.133-83.627c-19.522 49.344-30.84 106.508-30.84 166.315s11.318 116.97 31.93 169.465l10.174-7.246 214.869-79.531c-10.091-24.452-15.95-52.843-15.95-82.603s5.859-58.15 16.487-84.082zM512 911.872c0.020 0 0.044 0 0.068 0 59.758 0 116.869-11.337 169.297-31.979l-7.232-10.176-79.531-214.869c-24.452 10.091-52.843 15.95-82.603 15.95s-58.15-5.859-84.082-16.487l-82.147 226.67c49.292 19.553 106.403 30.891 166.161 30.891 0.024 0 0.048 0 0.072 0zM512-15.701c-0.020 0-0.044 0-0.068 0-59.758 0-116.869 11.337-169.297 31.979l86.763 225.045c24.452-10.091 52.843-15.95 82.603-15.95s58.15 5.859 84.082 16.487l82.147-226.67c-49.301-19.615-106.427-31.011-166.209-31.061zM674.133 513.195c7.926-19.144 12.529-41.376 12.529-64.683s-4.603-45.539-12.949-65.836c-1.787-4.171-3.069-10.354-3.069-16.837 0-20.603 12.946-38.182 31.147-45.047l5.793-2.158c-17.663-26.282-39.596-48.214-65.032-65.341l-2.893 4.925c-6.974 18.532-24.553 31.478-45.156 31.478-6.483 0-12.666-1.282-18.311-3.606-18.824-7.81-41.056-12.413-64.362-12.413s-45.539 4.603-65.836 12.949c-4.13 1.75-10.262 3.009-16.689 3.009-20.58 0-38.144-12.918-45.024-31.088l-2.158-5.792c-26.211 17.68-48.086 39.609-65.169 65.027l4.923 2.898c18.532 6.974 31.478 24.553 31.478 45.156 0 6.483-1.282 12.666-3.606 18.311-7.81 18.824-12.413 41.056-12.413 64.362s4.603 45.539 12.949 65.836c1.75 4.13 3.009 10.262 3.009 16.689 0 20.58-12.918 38.144-31.088 45.024l-5.792 2.158c17.637 26.198 39.509 48.070 64.864 65.171l2.891-4.926c6.974-18.532 24.553-31.478 45.156-31.478 6.483 0 12.666 1.282 18.311 3.606 18.823 7.818 41.054 12.426 64.362 12.426s45.54-4.608 65.834-12.962c4.173-1.787 10.356-3.069 16.839-3.069 20.603 0 38.182 12.946 45.047 31.147l2.158 5.793c26.269-17.621 48.198-39.496 65.343-64.868l-4.927-2.886c-18.501-6.99-31.419-24.554-31.419-45.134 0-6.426 1.26-12.559 3.545-18.163zM944.981 281.771l-11.264 4.096-214.869 79.531c10.091 24.452 15.95 52.843 15.95 82.603s-5.859 58.15-16.487 84.082l226.67 82.147c19.522-49.344 30.84-106.508 30.84-166.315s-11.318-116.97-31.93-169.465z"/>
<glyph unicode="&#x4e;" glyph-name="loader" d="M512 960c-34.404 0-62.293-27.89-62.293-62.293v-151.723c0-34.404 27.89-62.293 62.293-62.293s62.293 27.89 62.293 62.293v151.723c0 34.404-27.89 62.293-62.293 62.293zM512 212.309c-34.404 0-62.293-27.89-62.293-62.293v-151.723c0-34.404 27.89-62.293 62.293-62.293s62.293 27.89 62.293 62.293v151.723c0 34.404-27.89 62.293-62.293 62.293zM722.603 596.309c0.033 0 0.071 0 0.11 0 17.165 0 32.7 6.981 43.92 18.259l107.352 107.352c11.99 11.377 19.45 27.428 19.45 45.221 0 34.404-27.89 62.293-62.293 62.293-17.793 0-33.843-7.46-45.195-19.422l-107.375-107.377c-11.263-11.271-18.229-26.838-18.229-44.032 0-34.392 27.871-62.275 62.26-62.293zM301.397 299.691c-0.033 0-0.071 0-0.11 0-17.165 0-32.7-6.981-43.92-18.259l-107.352-107.352c-11.99-11.377-19.45-27.428-19.45-45.221 0-34.404 27.89-62.293 62.293-62.293 17.793 0 33.843 7.46 45.195 19.422l107.375 107.377c11.263 11.271 18.229 26.838 18.229 44.032 0 34.392-27.871 62.275-62.26 62.293zM961.707 510.293h-151.723c-34.404 0-62.293-27.89-62.293-62.293s27.89-62.293 62.293-62.293h151.723c34.404 0 62.293 27.89 62.293 62.293s-27.89 62.293-62.293 62.293zM276.309 448c0 34.404-27.89 62.293-62.293 62.293h-151.723c-34.404 0-62.293-27.89-62.293-62.293s27.89-62.293 62.293-62.293h151.723c34.404 0 62.293 27.89 62.293 62.293zM766.635 281.429c-11.377 11.99-27.428 19.45-45.221 19.45-34.404 0-62.293-27.89-62.293-62.293 0-17.793 7.46-33.843 19.422-45.195l107.377-107.375c11.377-11.99 27.428-19.45 45.221-19.45 34.404 0 62.293 27.89 62.293 62.293 0 17.793-7.46 33.843-19.422 45.195zM238.080 809.984c-11.14 10.571-26.233 17.073-42.843 17.073-34.404 0-62.293-27.89-62.293-62.293 0-16.611 6.502-31.703 17.099-42.871l107.323-107.322c11.377-11.99 27.428-19.45 45.221-19.45 34.404 0 62.293 27.89 62.293 62.293 0 17.793-7.46 33.843-19.422 45.195z"/>
<glyph unicode="&#x4f;" glyph-name="plugin-2" d="M757.93 655.274l2.731 274.603c0.001 0.101 0.002 0.221 0.002 0.341 0 16.212-13.143 29.355-29.355 29.355-0.001 0-0.001 0-0.002 0h-87.040c-16.055-0.093-29.068-12.987-29.354-28.986l-2.731-275.312h-200.021l2.731 274.432c0.003 0.152 0.004 0.332 0.004 0.512 0 16.154-13.048 29.26-29.179 29.354h-87.049c-0.001 0-0.003 0-0.004 0-16.126 0-29.233-12.929-29.521-28.986l-2.731-275.312h-76.971v-168.96c0.699-144.669 96.73-266.722 228.462-306.607l5.010-214.268c0.049-8.233 3.581-15.631 9.196-20.803 5.313-5.089 12.508-8.21 20.432-8.21 0.024 0 0.048 0 0.072 0h-0.004c29.355 0 45.568 0.853 61.781 1.536s31.573 1.365 59.904 1.536c0.001 0 0.001 0 0.002 0 16.281 0 29.501 13.101 29.694 29.336v209.597c133.939 40.538 229.895 162.573 230.57 307.121v169.039z"/>
<glyph unicode="&#x50;" glyph-name="forminator" d="M974.681 663.513l-436.224-436.565c-8.921-8.874-23.335-8.874-32.256 0l-53.931 53.931c-8.874 8.921-8.874 23.335 0 32.256l456.192 456.704c-169.457 210.118-473.148 252.116-693.27 95.875s-280.681-456.782-138.245-686.078c142.436-229.297 438.693-308.188 676.3-180.093s334.532 418.951 221.263 663.971zM137.39 349.145c-2.2 0.028-4.384 0.373-6.485 1.024-8.051 2.298-14.164 8.87-15.872 17.067-5.656 26.825-8.516 54.164-8.533 81.579 0.282 221.575 179.833 401.126 401.408 401.408h31.744l-93.184-94.208c-2.908-2.93-6.57-4.997-10.581-5.973v0c-139.542-32.965-237.89-157.845-237.227-301.227 0.064-11.412 0.805-22.809 2.219-34.133 0.836-6.922-1.555-13.844-6.485-18.773l-40.789-40.107c-4.306-4.284-10.139-6.678-16.213-6.656zM389.933 210.99c-1.369-5.636-5.557-10.165-11.074-11.977v0l-158.358-51.594c-1.772-0.292-3.58-0.292-5.352 0-5.398 0.015-10.46 2.62-13.605 7s-3.988 10.003-2.268 15.111l51.679 158.099c1.813 5.55 6.386 9.759 12.073 11.113s11.671-0.343 15.796-4.479l106.679-106.505c4.117-4.089 5.797-10.028 4.43-15.662zM348.676 395.225c-6.078-0.041-11.918 2.356-16.213 6.656l-53.931 53.931c-8.874 8.921-8.874 23.335 0 32.256l353.621 353.28c8.921 8.874 23.335 8.874 32.256 0v0l53.931-53.931c8.874-8.921 8.874-23.335 0-32.256l-353.451-354.304c-4.306-4.284-10.139-6.678-16.213-6.656zM507.908 47.406c-32.029 0.020-63.941 3.859-95.061 11.435-8.103 1.919-14.522 8.091-16.758 16.113s0.065 16.624 6.006 22.458l39.424 39.595c5.183 5.078 12.455 7.418 19.627 6.315 15.41-2.455 30.988-3.71 46.592-3.755 150.162-0.036 278.547 108.033 304.128 256 0.731 4.582 2.879 8.82 6.144 12.117l88.405 88.405 1.365-19.115c0-9.045 1.365-18.091 1.365-27.136 0.283-221.908-179.33-402.055-401.237-402.432z"/>
<glyph unicode="&#x51;" glyph-name="trash" d="M864 704l-59.11-709.315c-2.764-33.171-30.493-58.685-63.779-58.685h-458.223c-33.286 0-61.015 25.514-63.779 58.685l-59.11 709.315h-32c-35.346 0-64 28.654-64 64s28.654 64 64 64h768c35.346 0 64-28.654 64-64s-28.654-64-64-64h-32zM352 960h320c17.673 0 32-14.327 32-32v-64h-384v64c0 17.673 14.327 32 32 32zM319.883 575.376c-26.445-1.849-46.384-24.786-44.535-51.231l29.019-414.987c1.849-26.445 24.786-46.384 51.231-44.535s46.384 24.786 44.535 51.231l-29.019 414.987c-1.849 26.445-24.786 46.384-51.231 44.535zM512 576c-26.51 0-48-21.49-48-48v-416c0-26.51 21.49-48 48-48s48 21.49 48 48v416c0 26.51-21.49 48-48 48zM707.598 575.376c-26.445 1.849-49.382-18.090-51.231-44.535l-29.019-414.987c-1.849-26.445 18.090-49.382 44.535-51.231s49.382 18.090 51.231 44.535l29.019 414.987c1.849 26.445-18.090 49.382-44.535 51.231z"/>
<glyph unicode="&#x52;" glyph-name="plug-connected" d="M354.645 573.269c-2.821 2.878-6.749 4.661-11.093 4.661s-8.272-1.784-11.091-4.659l-0.002-0.003-119.467-119.467c-33.906-33.962-54.873-80.85-54.873-132.635 0-40.902 13.080-78.749 35.286-109.586l-0.381 0.556-175.957-175.787c-10.657-10.657-17.249-25.38-17.249-41.643 0-32.525 26.367-58.892 58.892-58.892 16.262 0 30.985 6.592 41.643 17.249v0l175.787 176.128c30.28-21.825 68.127-34.905 109.029-34.905 51.785 0 98.673 20.967 132.637 54.876l119.465 119.465c2.836 2.84 4.59 6.762 4.59 11.093s-1.754 8.253-4.59 11.094v0zM1006.933 942.933c-10.629 10.65-25.324 17.239-41.557 17.239s-30.929-6.589-41.556-17.238l-176.129-175.958c-30.26 21.781-68.071 34.834-108.93 34.834-51.75 0-98.609-20.939-132.568-54.806l-119.463-119.463c-2.836-2.84-4.59-6.762-4.59-11.093s1.754-8.253 4.59-11.094v0l282.624-282.624c2.821-2.878 6.749-4.661 11.093-4.661s8.272 1.784 11.091 4.659l0.002 0.003 119.467 119.467c33.906 33.962 54.873 80.85 54.873 132.635 0 40.902-13.080 78.749-35.286 109.586l0.381-0.556 175.957 175.787c10.701 10.637 17.325 25.366 17.325 41.643s-6.623 31.006-17.322 41.64l-0.003 0.003z"/>
<glyph unicode="&#x53;" glyph-name="star" d="M1022.693 572.936c-3.255 9.924-12.398 16.98-23.2 17.067h-346.293l-117.931 333.312c-3.443 9.687-12.531 16.499-23.211 16.499s-19.767-6.811-23.157-16.327l-117.984-334.166h-346.283c-13.554-0.025-24.532-11.018-24.532-24.576 0-7.796 3.63-14.744 9.292-19.247l270.386-214.055-121.003-342.357c-0.92-2.477-1.453-5.339-1.453-8.325 0-13.573 11.003-24.576 24.576-24.576 4.699 0 9.091 1.319 12.824 3.607l317.333 190.403 317.44-190.293c3.626-2.227 8.017-3.546 12.717-3.546 13.573 0 24.576 11.003 24.576 24.576 0 2.986-0.533 5.848-1.508 8.495l-120.948 342.016 270.336 214.016c5.646 4.542 9.228 11.45 9.228 19.194 0 2.907-0.505 5.696-1.431 8.284z"/>
<glyph unicode="&#x54;" glyph-name="shipper-anchor" d="M999.595 431.957l-231.595-90.624 75.264-57.856c-40.448-87.723-120.32-185.856-277.163-204.8v405.845h87.552c32.896 0 59.563 26.667 59.563 59.563v0 37.717c0 6.881-5.578 12.459-12.459 12.459h-133.973v83.968c54.046 22.297 91.392 74.577 91.392 135.579 0 80.778-65.483 146.261-146.261 146.261s-146.261-65.483-146.261-146.261c0-61.002 37.345-113.282 90.421-135.224l0.971-0.356v-83.968h-133.803c-6.881 0-12.459-5.578-12.459-12.459v0-37.717c0-32.896 26.667-59.563 59.563-59.563v0h86.869v-405.504c-125.867 11.186-230.756 90.764-278.041 200.922l-0.829 2.171 77.653 59.221-231.595 90.624 9.728-260.437 61.44 47.104c69.568-136.502 204.284-231.011 362.051-242.771l1.469-0.088c1.783-5.006 4.522-9.283 8.023-12.801l-0.001 0.001 19.797-17.067c6.359-6.346 15.137-10.269 24.832-10.269s18.473 3.924 24.833 10.27l-0.001-0.001 19.797 17.067c3.472 3.534 6.205 7.805 7.943 12.556l0.078 0.244c159.506 11.114 294.419 106.399 361.525 241.346l1.142 2.537 62.805-48.128zM512 868.523c30.256 0 54.784-24.528 54.784-54.784s-24.528-54.784-54.784-54.784c-30.256 0-54.784 24.528-54.784 54.784v0c0 30.256 24.528 54.784 54.784 54.784v0z"/>
<glyph unicode="&#x55;" glyph-name="performance" d="M417.792 403.456c1.004 1.77 1.595 3.888 1.595 6.144 0 6.975-5.654 12.629-12.629 12.629-0.021 0-0.042 0-0.063 0h-143.698c-2.535 0.013-4.584 2.071-4.584 4.608 0 1.352 0.582 2.567 1.509 3.41l0.004 0.003 508.075 460.629c-72.482 41.722-159.387 66.332-252.040 66.332-282.77 0-512-229.23-512-512 0-168.707 81.597-318.357 207.479-411.636l1.383-0.979zM789.675 878.080l-186.88-329.045c-0.991-1.775-1.574-3.894-1.574-6.15 0-7.069 5.731-12.8 12.8-12.8 0.133 0 0.266 0.002 0.399 0.006h143.341c2.531-0.018 4.577-2.074 4.577-4.608 0-1.265-0.51-2.41-1.334-3.243v0l-527.36-503.808c80.343-54.904 179.602-87.673 286.514-87.673 282.77 0 512 229.23 512 512 0 182.975-95.982 343.532-240.344 434.070l-2.138 1.251z"/>
<glyph unicode="&#x56;" glyph-name="stopwatch" d="M1004.63 797.657l-99.726 100.512c-12.377 14.769-30.829 24.092-51.462 24.092-37.008 0-67.008-30-67.008-67.008 0-20.631 9.324-39.085 23.988-51.378l99.83-100.755c12.106-12.011 28.781-19.434 47.189-19.434s35.083 7.422 47.194 19.439c11.97 12.12 19.366 28.788 19.366 47.184s-7.396 35.066-19.377 47.196zM116.059 898.171l-100.512-99.726c-9.673-11.536-15.546-26.539-15.546-42.916 0-37.008 30-67.008 67.008-67.008 16.375 0 31.38 5.875 43.020 15.632l100.567 99.799c14.769 12.377 24.092 30.829 24.092 51.462 0 37.008-30 67.008-67.008 67.008-20.631 0-39.085-9.324-51.378-23.988zM507.886 697.775c0.094 0 0.204 0 0.316 0 165.059 0 298.863-133.806 298.863-298.863s-133.806-298.863-298.863-298.863c-165.059 0-298.863 133.806-298.863 298.863 0 82.645 33.546 157.456 87.765 211.558 53.635 53.931 127.883 87.306 209.925 87.306 0.302 0 0.602 0 0.904-0.001zM507.886 825.498c-235.095-0.207-425.595-190.836-425.595-425.96 0-235.251 190.709-425.96 425.96-425.96s425.96 190.709 425.96 425.96c0 117.871-47.878 224.562-125.246 301.684-76.901 77.071-183.215 124.748-300.664 124.748-0.145 0-0.289 0-0.436 0zM633.566 430.369v2.674c-1.409 5.069-2.804 9.151-4.394 13.131 0.304 0.867-0.64 2.599-1.427 4.171v0c-13.481 30.382-37.255 54.158-66.805 67.307l-0.834 0.332h-1.574v125.837h-99.254v-125.837h-0.943c-16.521-6.724-30.636-16.144-42.483-27.853-23.224-23.43-37.582-55.705-37.582-91.334 0-0.126 0-0.253 0.001-0.378v0.020s0 0 0-0.786c0.037-6.525 0.55-12.899 1.506-19.125l-0.092 0.721c1.638-11.347 4.497-21.575 8.493-31.212l-31.773-30.607-12.899-12.899 68.896-68.896 44.358 44.358 2.202-1.102h1.102c13.995-5.58 30.214-8.814 47.189-8.814s33.193 3.237 48.073 9.124l1.631-0.308c47.547 20.067 80.376 66.17 80.693 119.976-0.062 11.245-1.549 22.076-4.292 32.396zM542.335 365.563c-8.852-8.843-21.075-14.314-34.578-14.314-27.018 0-48.918 21.903-48.918 48.918s21.903 48.918 48.918 48.918c13.501 0 25.726-5.47 34.578-14.314 8.899-8.836 14.407-21.077 14.407-34.605s-5.508-25.769-14.404-34.603z"/>
<glyph unicode="&#x57;" glyph-name="web-globe-world" d="M512 960c-282.77 0-512-229.23-512-512s229.23-512 512-512c282.77 0 512 229.23 512 512s-229.23 512-512 512zM925.696 495.275h-125.611c-9.899 146.603-64.853 273.067-143.019 343.040 144.888-55.283 249.655-184.947 268.267-341.061zM460.8 789.333v-293.547h-141.141c11.093 146.773 73.045 256 140.629 293.547zM460.288 400.213v-293.547c-68.267 37.888-129.195 146.261-140.629 292.523zM555.861 103.595v296.107h148.309c-11.776-151.723-77.824-262.827-148.309-296.619zM555.861 495.616v297.131c70.656-34.133 136.533-145.237 148.309-297.472zM366.763 838.315c-78.165-70.656-133.12-196.267-143.019-343.040h-125.44c18.804 158.093 123.57 287.757 265.597 342.078zM98.475 399.701h125.44c10.069-146.261 64.853-271.531 142.848-341.333-144.368 55.070-248.893 183.969-268.084 339.305zM657.237 58.368c77.995 70.485 132.949 195.755 142.848 341.333h125.44c-19.395-157.364-123.919-286.263-265.426-340.372z"/>
<glyph unicode="&#x58;" glyph-name="download" d="M930.718 452.783h-212.388c-0.006 0-0.012 0-0.019 0-26.382 0-48.763-17.131-56.625-40.877-21.036-64.253-80.072-109.543-149.686-109.543s-128.649 45.29-149.248 108.012c-8.298 25.277-30.679 42.408-57.061 42.408-0.007 0-0.013 0-0.021 0h-212.387c0 0 0 0 0 0-32.935 0-59.634-26.699-59.634-59.634 0-0.056 0-0.112 0-0.168v-340.258c0-32.935 26.699-59.634 59.634-59.634h837.433c32.935 0 59.634 26.699 59.634 59.634v340.267c0 32.935-26.699 59.634-59.634 59.634zM499.404 420.893c2.927-4.074 7.652-6.697 12.989-6.697 0.030 0 0.060 0 0.091 0h-0.005c0.025 0 0.055 0 0.086 0 5.338 0 10.062 2.623 12.957 6.649l165.064 232.208c2.068 2.663 3.315 6.052 3.315 9.732 0 8.807-7.139 15.945-15.945 15.945-0.156 0-0.312-0.002-0.468-0.007l-77.629 0.001v208.243c0 8.807-7.139 15.945-15.945 15.945h-143.505c-8.807 0-15.945-7.139-15.945-15.945v-208.243h-77.971c-0.060 0.001-0.131 0.001-0.202 0.001-8.807 0-15.945-7.139-15.945-15.945 0-3.538 1.153-6.807 3.103-9.453z"/>
<glyph unicode="&#x59;" glyph-name="blog" d="M64 896v-119.467h59.733s0 74.667 74.667 74.667v-283.733s0-14.933-29.867-14.933h-14.933v-44.8h194.133v44.8h-14.933c-29.867 0-29.867 14.933-29.867 14.933v283.733c74.667 0 74.667-74.667 74.667-74.667h59.733v119.467zM930.133 761.6h-388.267c-16.495 0-29.867 13.372-29.867 29.867v0 74.667c0 16.495 13.372 29.867 29.867 29.867v0h388.267c16.495 0 29.867-13.372 29.867-29.867v0-74.667c0-16.495-13.372-29.867-29.867-29.867v0zM930.133 0h-836.267c-16.495 0-29.867 13.372-29.867 29.867v0 74.667c0 16.495 13.372 29.867 29.867 29.867v0h836.267c16.495 0 29.867-13.372 29.867-29.867v0-74.667c0-16.495-13.372-29.867-29.867-29.867v0zM930.133 253.867h-836.267c-16.495 0-29.867 13.372-29.867 29.867v0 74.667c0 16.495 13.372 29.867 29.867 29.867v0h836.267c16.495 0 29.867-13.372 29.867-29.867v0-74.667c0-16.495-13.372-29.867-29.867-29.867v0zM930.133 507.733h-388.267c-16.495 0-29.867 13.372-29.867 29.867v0 74.667c0 16.495 13.372 29.867 29.867 29.867v0h388.267c16.495 0 29.867-13.372 29.867-29.867v0-74.667c0-16.495-13.372-29.867-29.867-29.867v0z"/>
<glyph unicode="&#x5a;" glyph-name="wand-magic" d="M736.179 470.143l106.335 106.335c4.546 4.541 7.359 10.818 7.359 17.751s-2.812 13.209-7.358 17.751l-88.584 88.755c-4.541 4.546-10.818 7.359-17.751 7.359s-13.209-2.812-17.751-7.358l-106.506-106.336zM558.67 541.146l-469.888-470.059c-6.84-6.803-11.073-16.22-11.073-26.626s4.233-19.824 11.071-26.624l70.834-70.834c6.822-6.799 16.233-11.002 26.626-11.002s19.805 4.203 26.627 11.003l470.058 469.887zM328.419 815.603l14.849-40.281c14.496-38.367 44.243-68.113 81.647-82.29l41.244-15.169-40.281-14.849c-38.367-14.496-68.113-44.243-82.29-81.647l-15.169-41.244-14.849 40.281c-14.424 38.305-44.040 68.034-81.309 82.287l-41.241 15.171 40.281 14.849c38.367 14.496 68.113 44.243 82.29 81.647zM629.503 960l10.241-27.479c9.878-26.261 30.235-46.617 55.839-56.278l28.137-10.458-27.479-10.241c-26.248-9.898-46.597-30.248-56.277-55.838l-10.459-27.454-10.241 27.479c-9.898 26.248-30.248 46.597-55.838 56.277l-28.138 10.459 27.479 10.241c26.261 9.878 46.617 30.235 56.278 55.839zM874.091 311.409l7.852-20.994c7.585-20.051 23.131-35.597 42.679-43.015l21.668-8.019-21.165-7.852c-20.051-7.585-35.597-23.131-43.015-42.679l-8.019-21.497-7.852 20.994c-7.585 20.051-23.131 35.597-42.679 43.015l-21.668 8.019 21.165 7.852c20.051 7.585 35.597 23.131 43.015 42.679z"/>
<glyph unicode="&#x5b;" glyph-name="power-on-off" d="M916.651 761.003c-12.235 15.422-30.974 25.224-52.003 25.224-15.397 0-29.566-5.255-40.813-14.069l0.144 0.109c-15.645-12.197-25.611-31.046-25.611-52.223 0-15.306 5.207-29.396 13.945-40.596l-0.11 0.147c49.588-63.037 79.531-143.561 79.531-231.079 0-0.181 0-0.363 0-0.544v0.028c0-209.721-170.012-379.733-379.733-379.733s-379.733 170.012-379.733 379.733v0c-0.001 0.37-0.002 0.807-0.002 1.245 0 87.421 29.877 167.864 79.977 231.675l-0.615-0.813c8.478 10.994 13.589 24.965 13.589 40.129 0 21.067-9.863 39.83-25.223 51.924l-0.141 0.107c-11.057 8.587-25.133 13.767-40.419 13.767-21.171 0-40.022-9.936-52.144-25.398l-0.109-0.144c-66.83-85.078-107.179-193.714-107.179-311.774 0-0.252 0-0.504 0.001-0.756v0.040c0-282.77 229.23-512 512-512s512 229.23 512 512v0c0.002 0.53 0.003 1.158 0.003 1.785 0 117.964-40.283 226.52-107.844 312.661l0.833-1.103zM512 382.123c36.271 0.193 65.61 29.593 65.707 65.868v445.961c0 36.477-29.571 66.048-66.048 66.048s-66.048-29.571-66.048-66.048v0-445.952c0.097-36.404 29.63-65.878 66.048-65.878 0.12 0 0.24 0 0.36 0.001h-0.018z"/>
<glyph unicode="&#x5d;" glyph-name="tablet-portrait" d="M847.787 959.998h-673.963c-19.099-1.203-34.134-16.988-34.134-36.284 0-0.084 0-0.168 0.001-0.251v-950.942c0-0.071-0.001-0.155-0.001-0.238 0-19.296 15.035-35.081 34.029-36.279l674.068-0.005c20.171 0 36.523 16.352 36.523 36.523v950.955c0 20.171-16.352 36.523-36.523 36.523zM510.55-33.965c-16.495 0-29.867 13.372-29.867 29.867s13.372 29.867 29.867 29.867c16.495 0 29.867-13.372 29.867-29.867s-13.372-29.867-29.867-29.867zM764.502 55.465h-505.344v785.067h505.173v-785.067z"/>
<glyph unicode="&#x5e;" glyph-name="align-center" d="M110.667 0h802.667c24.165 0 43.755 19.59 43.755 43.755v40.32c0 24.165-19.59 43.755-43.755 43.755h-802.667c0 0 0 0 0 0-24.113 0-43.67-19.505-43.755-43.597v-40.327c0-0.045 0-0.097 0-0.149 0-24.165 19.59-43.755 43.755-43.755 0 0 0 0 0 0zM175.029 340.181v0-40.32c0-24.165 19.59-43.755 43.755-43.755h586.432c24.165 0 43.755 19.59 43.755 43.755v40.32c0 24.165-19.59 43.755-43.755 43.755h-586.432c-24.165 0-43.755-19.59-43.755-43.755zM154.72 768.021h714.859c24.165 0 43.755 19.59 43.755 43.755v40.469c0 24.165-19.59 43.755-43.755 43.755h-714.859c-0.045 0-0.097 0-0.149 0-24.165 0-43.755-19.59-43.755-43.755 0 0 0 0 0 0v0-40.32c0-0.045 0-0.097 0-0.149 0-24.165 19.59-43.755 43.755-43.755 0.052 0 0.105 0 0.158 0zM218.784 555.819c0-24.165 19.59-43.755 43.755-43.755h498.923c24.165 0 43.755 19.59 43.755 43.755v40.32c0 24.165-19.59 43.755-43.755 43.755h-498.773c-24.165 0-43.755-19.59-43.755-43.755v0-40.32z"/>
<glyph unicode="&#x5f;" glyph-name="check-tick" d="M874.008 810.069c-92.651 92.636-220.639 149.931-362.008 149.931-282.77 0-512-229.23-512-512s229.23-512 512-512c141.37 0 269.358 57.295 362.009 149.932 92.671 92.656 149.991 220.668 149.991 362.068s-57.32 269.412-149.991 362.068zM724.675 535.125l-251.392-251.392c-10.683-10.67-25.435-17.268-41.728-17.268s-31.045 6.599-41.729 17.269l-126.805 126.805c-6.868 6.884-11.116 16.386-11.116 26.88s4.247 19.996 11.116 26.881l29.695 29.695c6.893 6.919 16.429 11.201 26.965 11.201s20.073-4.282 26.964-11.2l85.335-85.335 209.067 210.091c6.884 6.868 16.386 11.116 26.88 11.116s19.996-4.247 26.881-11.116l29.695-29.695c6.868-6.884 11.116-16.386 11.116-26.88s-4.247-19.996-11.116-26.881z"/>
<glyph unicode="&#x60;" glyph-name="list" d="M128 544h768c35.346 0 64-28.654 64-64v-64c0-35.346-28.654-64-64-64h-768c-35.346 0-64 28.654-64 64v64c0 35.346 28.654 64 64 64zM128 864h768c35.346 0 64-28.654 64-64v-64c0-35.346-28.654-64-64-64h-768c-35.346 0-64 28.654-64 64v64c0 35.346 28.654 64 64 64zM128 224h768c35.346 0 64-28.654 64-64v-64c0-35.346-28.654-64-64-64h-768c-35.346 0-64 28.654-64 64v64c0 35.346 28.654 64 64 64z"/>
<glyph unicode="&#x61;" glyph-name="zip" d="M755.131 601.565l-230.261 76.87v102.435l230.261-76.87v-102.435zM755.131 447.999l-230.261 76.87v102.261l230.261-76.696v-102.435zM755.131 294.433l-230.261 76.696v102.435l230.261-76.696v-102.435zM755.131 755.129l-230.261 76.87v102.435l230.261-76.87v-102.435zM192.001 473.564v281.565c0 42.453 34.415 76.87 76.87 76.87h588.696c0 70.693-57.308 128-128 128v0h-537.566c-70.653-0.099-127.902-57.348-128-127.99v-434.792c0-0.103 0-0.225 0-0.347 0-70.693 57.308-128 128-128 0 0 0 0 0 0h537.566c0.052 0 0.113 0 0.174 0 70.597 0 127.826 57.229 127.826 127.826 0 0.061 0 0.122 0 0.183v-0.009h-588.696c-0.052 0-0.113 0-0.174 0-42.358 0-76.696 34.338-76.696 76.696 0 0 0 0 0 0v0zM524.87 217.564h230.261v-203.304c0-43.222-35.039-78.261-78.261-78.261v0h-73.739c-43.222 0-78.261 35.039-78.261 78.261v0 203.304zM473.74 63.999c0-42.453-34.415-76.87-76.87-76.87s-76.87 34.415-76.87 76.87c0 42.453 34.415 76.87 76.87 76.87s76.87-34.415 76.87-76.87zM960.001 63.999c0-42.453-34.415-76.87-76.87-76.87s-76.87 34.415-76.87 76.87c0 42.453 34.415 76.87 76.87 76.87s76.87-34.415 76.87-76.87zM448 89.564h384v-51.13h-384v51.13z"/>
<glyph unicode="&#x62;" glyph-name="archive" d="M96 640h832c17.673 0 32-14.327 32-32v-544c0-35.346-28.654-64-64-64h-768c-35.346 0-64 28.654-64 64v544c0 17.673 14.327 32 32 32zM96 896h832c35.346 0 64-28.654 64-64v-96c0-17.673-14.327-32-32-32h-896c-17.673 0-32 14.327-32 32v96c0 35.346 28.654 64 64 64zM384 512c-35.346 0-64-28.654-64-64s28.654-64 64-64h256c35.346 0 64 28.654 64 64s-28.654 64-64 64h-256z"/>
<glyph unicode="&#x63;" glyph-name="inlinecss" d="M128 896h768c35.346 0 64-28.654 64-64s-28.654-64-64-64h-768c-35.346 0-64 28.654-64 64s28.654 64 64 64zM128 128h768c35.346 0 64-28.654 64-64s-28.654-64-64-64h-768c-35.346 0-64 28.654-64 64s28.654 64 64 64zM128 640h768c35.346 0 64-28.654 64-64v-256c0-35.346-28.654-64-64-64h-768c-35.346 0-64 28.654-64 64v256c0 35.346 28.654 64 64 64z"/>
<glyph unicode="&#x64;" glyph-name="social-dropbox" d="M301.227 888.491l-301.227-196.779 208.213-166.741 303.787 187.563-210.773 175.957zM0 358.229v0l301.227-196.779 210.773 175.957-303.787 187.563-208.213-166.741zM512 337.408l210.773-175.957 301.227 196.779-208.213 166.741-303.787-187.563zM722.773 888.491l-210.773-175.957 303.787-187.563 208.213 166.741-301.227 196.779zM301.227 124.245l-90.453 59.051v-66.219l301.909-181.077 301.739 181.077v66.219l-90.453-59.051-211.285 175.275-211.456-175.275z"/>
<glyph unicode="&#x65;" glyph-name="eye" d="M512 223.915c123.759 0 224.085 100.326 224.085 224.085s-100.326 224.085-224.085 224.085c-123.759 0-224.085-100.326-224.085-224.085s100.326-224.085 224.085-224.085zM0 448s136.533 352.085 512 352.085 512-352.085 512-352.085-136.533-352.085-512-352.085-512 352.085-512 352.085zM512 352.085c52.972 0 95.915 42.942 95.915 95.915s-42.942 95.915-95.915 95.915c-52.972 0-95.915-42.942-95.915-95.915s42.942-95.915 95.915-95.915z"/>
<glyph unicode="&#x66;" glyph-name="social-facebook" d="M374.272-64v512h-109.739v176.469h109.739v105.984c0 144.213 62.123 229.547 238.080 229.547h147.115v-176.469h-91.989c-68.267 0-73.216-24.747-73.216-70.656v-88.235h165.205l-18.773-176.64h-146.603v-512z"/>
<glyph unicode="&#x67;" glyph-name="social-google-plus" d="M0.859 463.671c-10.682-134.785 79.418-267.513 206.439-314.614s288.992-15.32 369.92 96.716c53.411 70.766 64.905 161.88 58.635 247.392-103.683 0.229-207.136 0.229-310.705 0.229 0-36.354 0-72.709 0-109.177 61.885-1.943 124.003-1.029 185.772-1.943-27.285-135.243-214.219-179.143-313.491-90.772-100.897 77.625-96.137 247.621 9.637 319.528 73.845 58.076 178.923 43.67 252.883-6.516 28.893 26.616 55.809 54.024 81.285 82.701-60.385 49.568-135.854 83.978-216.085 80.549-167.427 5.258-321.386-139.244-324.289-304.096l-0.001 0.003zM837.879 584.853c0-30.409-0.581-60.82-0.812-91.456l-92.885-0.572v-91.456l92.885-0.915c0-30.41 0-60.819 0.581-91.458h92.885c0 30.41 0 60.819 0.581 91.458l92.885 0.801v92.144l-92.885 0.572c0 30.409 0 60.933-0.581 91.456l-92.654-0.573z"/>
<glyph unicode="&#x68;" glyph-name="social-github" d="M512 934.741c-0.11 0-0.241 0-0.371 0-282.77 0-512-229.23-512-512 0-225.030 145.173-416.153 346.974-484.823 29.205-5.844 37.739 10.028 37.739 23.51s0 44.373 0 87.040c-142.507-30.891-172.544 68.267-172.544 68.267-23.211 59.733-56.661 75.264-56.661 75.264-46.421 31.744 3.584 31.061 3.584 31.061 33.642-4.794 61.856-24.567 78.061-52.229 46.013-78.673 119.741-56.145 149.267-43.003 2.518 26.917 14.443 50.654 32.408 68.248-113.645 12.989-233.112 57.192-233.112 253.458-0.013 0.842-0.020 1.835-0.020 2.83 0 52.018 20.062 99.35 52.871 134.681-6.822 18.19-10.702 39.335-10.702 61.387 0 26.775 5.72 52.215 16.004 75.163s42.541 12.658 140.333-53.731c38.377 10.941 82.454 17.232 128 17.232s89.623-6.291 131.409-18.052c94.383 67.038 137.221 53.385 137.221 53.385 9.885-21.837 15.644-47.349 15.644-74.205 0-21.975-3.856-43.050-10.929-62.584 32.998-33.856 52.995-81.074 52.995-132.964 0-1.105-0.009-2.208-0.027-3.309 0.002-196.442-119.465-239.791-233.811-252.421 18.432-15.872 34.133-47.104 34.133-94.891 0-68.267 0-123.563 0-140.459 0-13.653 9.216-29.696 35.157-24.576 205.138 69.887 350.066 260.877 350.066 485.717 0 282.66-229.052 511.822-511.67 512z"/>
<glyph unicode="&#x69;" glyph-name="social-linkedin" d="M264.704 0.001h-185.621v598.528h185.621zM171.82 680.364c-0.045 0-0.097 0-0.149 0-59.547 0-107.819 48.272-107.819 107.819s48.272 107.819 107.819 107.819c59.547 0 107.819-48.272 107.819-107.819 0-0.045 0-0.097 0-0.149 0-59.465-48.206-107.669-107.669-107.669zM960.149 0.001h-185.472v291.051c0 69.44-1.344 158.741-96.469 158.741s-111.403-75.563-111.403-153.664v-296.128h-185.621v598.528h178.155v-81.835h2.539c24.939 47.040 84.672 96.768 175.616 96.768 188.011 0 222.656-123.947 222.656-284.928v-328.533z"/>
<glyph unicode="&#x6a;" glyph-name="like" d="M66.821 114.541c-0.050 0.711-0.079 1.54-0.079 2.375s0.029 1.664 0.086 2.486l-0.007 368.828c0 19.18 15.548 34.728 34.728 34.728h68.118c18.63-0.575 33.532-15.737 33.688-34.415v-376.966c-1.836-17.264-16.143-30.648-33.651-31.017l-0.036-0.001h-68.118c-0.003 0-0.006 0-0.007 0-18.918 0-34.303 15.127-34.718 33.946zM272.364 56.662v500.131c0 19.18 15.548 34.728 34.728 34.728h138.018c2.18 3.226 4.679 6.007 7.51 8.41l135.406 234.531c13.649 24.095 39.075 40.115 68.252 40.219 43.398-0.502 78.374-35.789 78.374-79.244 0-0.158-0.001-0.316-0.002-0.474l0.741 0.024v-203.466h188.031c18.793-0.498 33.836-15.849 33.836-34.715 0-0.005 0-0.007 0-0.012v0.001-385.857c-0.020-4.751-1.943-9.047-5.047-12.17l-133.565-133.565c-2.904-2.418-6.674-3.885-10.786-3.885-0.855 0-1.694 0.063-2.514 0.185l-498.256-0.011c-0.011 0-0.025 0-0.038 0-18.523 0-33.645 14.565-34.537 32.866l-0.004 0.080v1.039s0 0 0 0 0 0 0 0zM916.448 169.748v0 0z"/>
<glyph unicode="&#x6b;" glyph-name="dislike" d="M957.15 638.747v0c-0.020 4.749-1.943 9.046-5.046 12.168l-133.543 133.543c-2.922 2.413-6.705 3.876-10.829 3.876-0.839 0-1.663-0.060-2.47-0.178l-497.289 0.011c-0.011 0-0.025 0-0.038 0-18.519 0-33.639-14.563-34.531-32.861l-0.004-0.080v-1.187s0 0 0 0 0 0 0 0v-500.497c-0.007-0.265-0.011-0.578-0.011-0.89 0-19.129 15.468-34.644 34.578-34.722h137.707c2.083-3.341 4.489-6.219 7.238-8.726l1.516-2.551v-1.485h0.89l133.544-230.142c13.782-23.498 38.917-39.026 67.678-39.026 0.1 0 0.197 0 0.296 0.001 43.409 0.335 78.482 35.615 78.482 79.087 0 0.209-0.001 0.42-0.003 0.628l0.742-0.033v203.137h187.259c18.789 0.498 33.832 15.847 33.832 34.711 0 0.005 0 0.007 0 0.012v-0.001 385.795zM202.917 692.758v0c-0.251 18.984-15.699 34.276-34.719 34.276-0.001 0-0.002 0-0.003 0h-67.514c-18.672-0.413-33.67-15.566-33.832-34.26v-376.761c1.7-17.439 16.134-30.998 33.8-31.308h67.991c0 0 0.001 0 0.001 0 19.072 0 34.553 15.376 34.72 34.408 0.054 0.726 0.085 1.554 0.085 2.391s-0.031 1.664-0.090 2.484z"/>
<glyph unicode="&#x6c;" glyph-name="cloud-migration" d="M4.084 320h379.916v128h-365.939c35.286 82.255 118.578 141.042 216.896 145.083 13.786 98.746 102.292 174.917 209.42 174.917 99.562 0 183.040-65.792 204.508-156.092 18.238 6.353 37.93 9.82 58.468 9.82 87.884 0 160.254-63.463 170.904-145.972 83.204-16.805 145.664-87.332 145.738-172.055-2.662-97.469-86.2-175.7-189.092-175.7h-585.729c-119.608 0-223.556 83.058-245.090 192zM384 528.297v-288.594c0-35.346 28.654-64 64-64 15.811 0 31.062 5.852 42.814 16.429l160.33 144.297c26.273 23.645 28.402 64.112 4.757 90.385-1.501 1.668-3.089 3.256-4.757 4.757l-160.33 144.297c-26.273 23.645-66.739 21.516-90.385-4.757-10.577-11.752-16.429-27.003-16.429-42.814z"/>
<glyph unicode="&#x6d;" glyph-name="mail" d="M0 576l512-192 512 192v-384c0-70.692-57.308-128-128-128h-768c-70.692 0-128 57.308-128 128v384zM128 832h768c70.692 0 128-57.308 128-128v-32l-512-192-512 192v32c0 70.692 57.308 128 128 128z"/>
<glyph unicode="&#x6e;" glyph-name="open-new-window" d="M840.532 896h-238.933v-119.467h154.411l-468.011-467.563c-0.527-0.539-0.854-1.277-0.854-2.091s0.326-1.552 0.854-2.092l80.788-80.788c0.539-0.527 1.277-0.854 2.091-0.854s1.552 0.326 2.092 0.854l467.562 468.010v-154.411h119.467v358.4zM840.532 149.333c0-16.495-13.372-29.867-29.867-29.867v0h-597.333c-16.495 0-29.867 13.372-29.867 29.867v0 597.333c0 16.495 13.372 29.867 29.867 29.867v0h194.133v119.467h-224c-65.979 0-119.467-53.487-119.467-119.467v0-657.067c0-65.979 53.487-119.467 119.467-119.467v0h657.067c65.979 0 119.467 53.487 119.467 119.467v0 224h-119.467z"/>
<glyph unicode="&#x6f;" glyph-name="combine" d="M725.143 384.331h-256.115l-359.096-359.096c-24.83-24.83-65.088-24.83-89.918 0l-0.124 0.124c-24.83 24.83-24.83 65.088 0 89.918l332.723 332.723-332.723 332.723c-24.83 24.83-24.83 65.088 0 89.918l0.124 0.124c24.83 24.83 65.088 24.83 89.918 0l359.096-359.096h256.115v131.106c0 17.557 14.233 31.791 31.791 31.791 7.373 0 14.516-2.562 20.208-7.25l236.543-194.776c13.554-11.161 15.494-31.196 4.333-44.75-1.302-1.581-2.753-3.032-4.333-4.333l-236.543-194.776c-13.554-11.161-33.589-9.22-44.75 4.333-4.686 5.692-7.25 12.835-7.25 20.208v131.108z"/>
<glyph unicode="&#x70;" glyph-name="defer" d="M214.488 616.412h-122.529c-6.398 0-12.602 2.194-17.578 6.217-12.007 9.708-13.871 27.311-4.164 39.319l178.422 220.684c1.237 1.531 2.633 2.926 4.164 4.164 12.007 9.708 29.611 7.844 39.319-4.164l178.422-220.684c4.022-4.975 6.217-11.18 6.217-17.578 0-15.441-12.517-27.958-27.958-27.958h-122.482v-559.177c0-30.882-25.034-55.916-55.916-55.916s-55.916 25.034-55.916 55.916v559.177zM773.649 280.907h122.482c15.441 0 27.958-12.517 27.958-27.958 0-6.398-2.194-12.602-6.217-17.578l-178.422-220.684c-9.708-12.007-27.311-13.871-39.319-4.164-1.531 1.237-2.926 2.633-4.164 4.164l-178.422 220.684c-9.708 12.007-7.844 29.611 4.164 39.319 4.975 4.022 11.18 6.217 17.578 6.217h122.529v559.177c0 30.882 25.035 55.916 55.916 55.916s55.916-25.034 55.916-55.916v-559.177z"/>
<glyph unicode="&#x71;" glyph-name="eye-hide" d="M201.216 838.997c-2.596 2.605-6.187 4.217-10.155 4.217s-7.559-1.612-10.154-4.216l-61.44-60.928c-2.605-2.596-4.217-6.187-4.217-10.155s1.612-7.559 4.216-10.154l701.27-700.758c2.596-2.605 6.187-4.217 10.155-4.217s7.559 1.612 10.154 4.216l60.928 60.928c2.605 2.596 4.217 6.187 4.217 10.155s-1.612 7.559-4.216 10.154zM665.6 456.533c-4.372 78.297-66.77 140.695-144.666 145.049zM358.4 437.419c5.285-76.768 66.251-137.734 142.541-142.992zM512 671.915c0.243 0.001 0.531 0.002 0.818 0.002 123.288 0 223.232-99.944 223.232-223.232 0-19.895-2.603-39.181-7.486-57.539l150.881-148.97c60.159 57.039 108.919 125.422 142.957 201.809s-134.935 356.101-510.402 356.101c-0.695 0.003-1.517 0.005-2.339 0.005-58.177 0-114.196-9.241-166.669-26.335l113.712-108.838c16.592 4.431 35.643 6.983 55.287 6.997zM512 223.915c-0.228-0.001-0.498-0.001-0.768-0.001-123.288 0-223.232 99.944-223.232 223.232 0 19.337 2.459 38.1 7.081 55.993l-151.38 149.661c-59.739-56.808-108.2-124.836-142.102-200.79s134.934-355.925 510.401-355.925c0.727-0.004 1.587-0.006 2.447-0.006 57.572 0 113.029 9.053 165.026 25.812l-113.884 109.020c-16.056-4.238-34.509-6.722-53.525-6.826z"/>
<glyph unicode="&#x72;" glyph-name="reply" d="M1018.197 2.048c-94.208 337.749-356.693 426.667-516.779 448.683l-84.309 11.605v-223.573l-417.109 327.509 417.109 327.339v-175.957l62.293-10.069c203.264-33.28 352.939-115.2 442.197-243.883 82.773-119.467 115.712-279.723 96.256-461.653z"/>
<glyph unicode="&#x73;" glyph-name="share" d="M801.445 594.226c-18.787-0.030-36.732-3.598-53.217-10.072l-378.911 219.821c0 3.243 0 6.485 0 9.728-0.286 80.75-65.812 146.1-146.602 146.1-80.966 0-146.603-65.636-146.603-146.603s65.636-146.603 146.603-146.603c32.171 0 61.921 10.362 86.096 27.931l352.858-203.215c-4.21-13.064-6.637-28.094-6.637-43.691s2.427-30.627 6.924-44.733l-352.543-202.393c-23.762 17.425-53.583 27.883-85.845 27.883-80.684 0-146.091-65.407-146.091-146.091s65.407-146.091 146.091-146.091c80.684 0 146.091 65.407 146.091 146.091 0 0.037 0 0.075 0 0.112 0 3.066 0 5.968 0 8.869l380.416 220.16c15.309-5.943 33.028-9.386 51.552-9.386 80.778 0 146.261 65.483 146.261 146.261s-65.483 146.261-146.261 146.261c-0.124 0-0.247 0-0.371 0z"/>
<glyph unicode="&#x74;" glyph-name="social-twitter" d="M1024 765.024c-34.892-15.915-75.37-27.521-117.814-32.769 41.325 26.083 73.925 66.439 89.754 114.431-37.902-21.718-82.513-39.422-130.042-49.091-41.122 40.731-95.69 66.405-156.245 66.405-115.932 0-209.914-94.097-209.914-210.171 0-17.16 2.054-33.841 5.93-49.808-174.836 10.663-328.295 93.84-431.157 219.996-18.77-29.233-29.36-65.72-29.36-104.683 0-72.4 36.563-136.25 92.212-174.047-34.281 0.657-66.827 10.245-95.241 26.306 1.042-1.401 1.042-2.261 1.042-3.122 0.044-101.219 71.547-185.705 166.738-205.632-15.119-4.882-34.048-7.552-53.598-7.552-0.107 0-0.216 0-0.326 0-0.032 0-0.092 0-0.151 0-13.869 0-27.42 1.357-40.532 3.945 28.881-84.309 105.824-144.285 197-146.014-70.547-55.954-161.022-89.749-259.379-89.749-0.307 0-0.616 0-0.925 0-17.562 0.002-34.929 1.043-51.992 3.066 92.776-59.354 203.777-94.534 322.988-94.534 0.19 0 0.378 0 0.567 0 385.577 0 596.35 319.845 596.35 597.251 0 9.032 0 18.208 0 27.096 41.174 30.039 75.86 66.047 103.567 107.158l0.529 1.519z"/>
<glyph unicode="&#x75;" glyph-name="movefooter" d="M128 896h768c35.346 0 64-28.654 64-64s-28.654-64-64-64h-768c-35.346 0-64 28.654-64 64s28.654 64 64 64zM128 640h768c35.346 0 64-28.654 64-64s-28.654-64-64-64h-768c-35.346 0-64 28.654-64 64s28.654 64 64 64zM128 384h768c35.346 0 64-28.654 64-64v-256c0-35.346-28.654-64-64-64h-768c-35.346 0-64 28.654-64 64v256c0 35.346 28.654 64 64 64z"/>
<glyph unicode="&#x76;" glyph-name="social-drive" d="M383.488 316.075l-177.664-305.323h640.512l177.664 305.323h-640.512zM329.216 889.344l320.341-554.667 353.28-1.024-320.171 554.667-353.451 1.024zM0 313.173l175.787-306.517 320.171 554.667-175.616 306.517-320.341-554.667z"/>
<glyph unicode="&#x77;" glyph-name="wordpress" d="M512 960c-282.77 0-512-229.23-512-512s229.23-512 512-512c282.77 0 512 229.23 512 512s-229.23 512-512 512zM255.147 644.608c25.259 1.365 47.957 4.096 47.957 4.096 8.85 0.729 15.756 8.091 15.756 17.067 0 9.456-7.665 17.121-17.121 17.121-0.481 0-0.956-0.020-1.427-0.059s-68.205-5.287-111.725-5.287c-7.851 0-17.067 0-26.965 0 76.052 114.526 204.485 188.994 350.311 188.994 109.329 0 208.881-41.857 283.507-110.42l-5.764 0.274c-39.179-1.128-70.51-33.157-70.51-72.505 0-0.67 0.009-1.338 0.027-2.004-0.002-34.035 19.966-63.731 41.129-98.206 21.048-32.798 33.711-72.734 34.132-115.6 0.001-35.952-13.823-77.595-31.914-135.622l-41.813-139.776-150.869 451.925c25.259 1.365 47.957 4.096 47.957 4.096 8.85 0.729 15.756 8.091 15.756 17.067 0 9.456-7.665 17.121-17.121 17.121-0.481 0-0.956-0.020-1.427-0.059s-68.205-5.287-111.725-5.287c-41.131 0-110.421 5.291-110.421 5.291-0.409 0.035-0.885 0.055-1.365 0.055-9.456 0-17.121-7.665-17.121-17.121 0-8.975 6.906-16.337 15.694-17.063s21.395-2.564 44.094-4.1l65.365-179.541-91.819-274.603zM329.045 70.656c-141.030 69.533-236.344 212.284-236.344 377.297 0 61.818 13.377 120.511 37.393 173.343zM519.339 411.989l129.195-353.792c0.957-2.241 1.985-4.148 3.161-5.948-41.53-14.922-89.365-23.635-139.236-23.635-42.262 0-83.063 6.257-121.527 17.896zM722.773 85.675l128 370.347c19.469 44.241 31.134 95.751 31.911 149.895 0.003 0.411 0.004 0.553 0.004 0.694 0 15.086-1.055 29.926-3.094 44.45 32.457-59.671 51.452-128.883 51.452-202.531 0-153.868-82.908-288.372-206.488-361.276z"/>
<glyph unicode="&#x78;" glyph-name="widget-settings-config" d="M938.501 520.575l-113.642 11.2c-8.043 29.678-19.119 55.638-33.222 79.602l73.392 86.905c3.332 4.076 5.35 9.336 5.35 15.068 0 6.596-2.672 12.567-6.993 16.889l-69.143 69.143c-4.324 4.321-10.294 6.993-16.889 6.993-5.733 0-10.994-2.020-15.111-5.385l-88.363-72.543c-22.463 13.288-48.424 24.362-75.854 31.88l-13.449 114.168c-1.253 12.117-11.401 21.488-23.742 21.504h-97.666c-12.343-0.016-22.489-9.387-23.735-21.401l-11.209-113.894c-29.677-8.033-55.636-19.107-79.596-33.22l-86.911 73.39c-4.076 3.332-9.336 5.35-15.068 5.35-6.596 0-12.567-2.672-16.889-6.993l-68.992-68.992c-4.321-4.324-6.993-10.295-6.993-16.889 0-5.731 2.020-10.994 5.385-15.111l72.541-88.363c-13.295-22.465-24.369-48.426-31.882-75.857l-114.316-13.442c-12.117-1.253-21.488-11.403-21.504-23.742v-97.666c0.016-12.343 9.387-22.489 21.401-23.735l113.894-11.209c8.029-29.675 19.103-55.638 33.219-79.594l-73.39-86.912c-3.402-4.081-5.471-9.378-5.471-15.16 0-6.561 2.66-12.5 6.962-16.798l68.992-68.992c4.324-4.321 10.294-6.993 16.889-6.993 5.731 0 10.994 2.020 15.111 5.385l88.363 72.541c22.461-13.325 48.417-24.446 75.844-32.022l13.458-114.175c1.255-12.128 11.419-21.504 23.774-21.504 0.042 0 0.084 0 0.126 0h97.659c12.343 0.016 22.489 9.387 23.735 21.401l11.209 113.745c29.678 8.082 55.638 19.205 79.587 33.367l86.921-73.388c4.076-3.332 9.335-5.35 15.068-5.35 6.596 0 12.567 2.672 16.889 6.993l68.992 68.992c4.302 4.298 6.962 10.236 6.962 16.798 0 5.78-2.065 11.081-5.5 15.199l-72.545 88.366c13.284 22.463 24.358 48.424 31.88 75.852l114.169 13.449c12.247 1.108 21.772 11.309 21.803 23.741v97.668c-0.016 12.343-9.387 22.489-21.401 23.735l-0.098 0.007zM512.004 315.839c-72.991 0-132.161 59.171-132.161 132.16s59.169 132.16 132.161 132.16c72.991 0 132.161-59.169 132.161-132.16s-59.171-132.16-132.161-132.16z"/>
<glyph unicode="&#x79;" glyph-name="social-youtube" d="M1014.113 648.12c0 0-9.729 68.939-41.116 99.375-26.137 25.868-62.396 42.035-102.554 42.459-143.364 10.046-358.365 10.046-358.365 10.046s-215 0-358.439-10.044c-40.234-0.442-76.491-16.603-102.611-42.436-31.41-30.459-40.669-99.4-40.669-99.4-6.069-48.054-9.817-104.254-10.352-161.198l-0.006-76.817c0.482-57.604 4.175-113.815 10.915-169.122s9.33-61.741 39.932-92.177c38.92-39.873 90.080-38.655 112.993-42.762 81.92-7.61 348.239-10.044 348.239-10.044s215.158 0 358.595 10.501c40.103 0.467 76.235 16.564 102.301 42.286 31.408 30.457 40.824 99.396 40.824 99.396 6.032 48.161 9.725 104.427 10.196 161.437l0.006 76.731c-0.476 57.648-4.169 113.913-10.915 169.273l1.028-7.505zM405.206 309.206v281.997l272.125-138.183-272.125-143.814z"/>
<glyph unicode="&#x7a;" glyph-name="filter" d="M986.647 776.462c-0.058 41.498-32.921 75.301-74.044 76.87l-797.997 0.005c-0.067 0-0.145 0-0.225 0-42.544 0-77.032-34.489-77.032-77.032 0-24.244 11.2-45.872 28.708-59.994l357.79-358.074v-221.45c0.616-14.21 8.524-26.445 20.054-33.115l0.194-0.103 95.855-55.362c5.842-3.483 12.883-5.541 20.405-5.541 22.276 0 40.336 18.059 40.336 40.336 0 0.058 0 0.115 0 0.173 0 1.098 0 2.047 0 3.155v0 271.91l361.281 361.124c15.197 14.060 24.68 34.107 24.68 56.37 0 0.258-0.001 0.514-0.004 0.772zM301.573 699.271v0z"/>
<glyph unicode="&#x7b;" glyph-name="arrow-skip-back" d="M497.129 99.768c-4.641-4.289-10.005-7.889-15.872-10.582l-0.379-0.155c-5.848-2.66-12.683-4.209-19.878-4.209s-14.031 1.549-20.186 4.334l0.309-0.125c-6.287 2.892-11.694 6.487-16.451 10.788l0.056-0.051-311.959 312.104c-4.671 4.572-8.409 10.079-10.912 16.22l-0.116 0.322c-2.207 5.658-3.485 12.206-3.485 19.054 0 0.187 0.001 0.376 0.003 0.562v-0.028c0 0.078-0.001 0.17-0.001 0.262 0 7.178 1.44 14.021 4.046 20.253l-0.129-0.346c2.4 6.77 6.009 12.577 10.613 17.434l-0.020-0.022 312.685 310.653c9.35 9.237 22.207 14.942 36.397 14.942 7.126 0 13.917-1.439 20.095-4.043l-0.341 0.128c6.333-2.695 11.732-6.42 16.244-11.019l0.007-0.007 35.694-36.564c9.237-9.35 14.942-22.207 14.942-36.397 0-7.126-1.439-13.917-4.043-20.095l0.128 0.341c-2.695-6.333-6.42-11.732-11.019-16.244l-0.007-0.007-237.234-239.265 237.234-238.54c4.607-4.519 8.332-9.917 10.904-15.928l0.123-0.323c2.479-5.769 3.919-12.482 3.919-19.533 0-0.121-0.001-0.244-0.002-0.364v0.018c0-0.079 0.001-0.172 0.001-0.266 0-7.227-1.439-14.118-4.047-20.401l0.131 0.353c-2.552-6.29-6.299-11.62-10.995-15.931l-0.031-0.028-35.694-37.289zM873.512 99.768c-4.704-4.25-10.109-7.845-15.999-10.572l-0.397-0.165c-5.77-2.659-12.518-4.208-19.629-4.208-0.087 0-0.176 0-0.263 0.001h0.014c-0.047 0-0.102 0-0.156 0-7.143 0-13.923 1.549-20.025 4.331l0.302-0.123c-6.224 2.933-11.578 6.522-16.309 10.788l0.059-0.051-311.089 312.104c-4.671 4.572-8.409 10.079-10.912 16.22l-0.116 0.322c-2.479 5.965-3.918 12.896-3.918 20.161 0 0.053 0 0.108 0 0.162v-0.008c0 0.078-0.001 0.17-0.001 0.262 0 7.178 1.44 14.021 4.046 20.253l-0.129-0.346c2.617 6.512 6.355 12.067 11.023 16.681l0.005 0.005 311.815 310.653c4.54 4.573 9.933 8.291 15.92 10.9l0.331 0.129c5.488 2.22 11.854 3.509 18.522 3.509 0.579 0 1.155-0.009 1.731-0.028l-0.084 0.003c0.233 0.005 0.509 0.006 0.786 0.006 13.826 0 26.358-5.541 35.495-14.522l-0.007 0.006 36.275-36.564c9.237-9.35 14.942-22.207 14.942-36.397 0-7.126-1.439-13.917-4.043-20.095l0.128 0.341c-2.695-6.333-6.42-11.732-11.019-16.244l-0.007-0.007-238.25-239.265 238.25-238.54c4.607-4.519 8.332-9.917 10.904-15.928l0.123-0.323c2.216-5.484 3.501-11.843 3.501-18.502 0-0.483-0.006-0.967-0.020-1.447l0.002 0.071c0-0.079 0.001-0.172 0.001-0.266 0-7.227-1.439-14.118-4.047-20.401l0.131 0.353c-2.552-6.29-6.299-11.62-10.995-15.931l-0.031-0.028-36.13-37.289z"/>
<glyph unicode="&#x7c;" glyph-name="flag" d="M910.404 754.49c-0.036 0-0.077 0-0.118 0-2.422 0-4.731-0.494-6.837-1.39l0.119 0.044c-37.374-20.496-81.739-32.542-128.846-32.556-0.155 0-0.334-0.002-0.511-0.002-85.841 0-162.626 39.821-213.792 102.454-46.563 45.349-109.104 72.959-177.923 72.959-66.249 0-126.68-25.587-172.432-67.66-9.486 21.49-30.172 35.949-54.147 35.949-33.091 0-59.916-27.549-59.916-61.529 0-0.222 0.002-0.445 0.003-0.665v-740.415c0-34.065 26.89-61.68 60.061-61.68s60.061 27.615 60.061 61.68v333.487c36.633 19.388 79.944 30.753 125.841 30.753 85.965 0 162.863-39.873 214.109-102.593 46.514-45.22 108.949-72.744 177.645-72.744 74.257 0 141.198 32.162 188.336 83.661 3.695 3.474 5.927 8.257 5.943 13.578v388.298c0 0.002 0 0.002 0 0.002 0 10.040-7.845 18.198-17.583 18.368h-0.014z"/>
<glyph unicode="&#x7d;" glyph-name="arrow-skip-forward" d="M526.871 99.768c4.641-4.289 10.005-7.889 15.872-10.582l0.379-0.155c5.848-2.66 12.683-4.209 19.878-4.209s14.031 1.549 20.186 4.334l-0.309-0.125c6.287 2.892 11.694 6.487 16.451 10.788l-0.056-0.051 311.959 312.104c4.671 4.572 8.409 10.079 10.912 16.22l0.116 0.322c2.207 5.658 3.485 12.206 3.485 19.054 0 0.187-0.001 0.376-0.003 0.562v-0.028c0 0.078 0.001 0.17 0.001 0.262 0 7.178-1.44 14.021-4.046 20.253l0.129-0.346c-2.4 6.77-6.009 12.577-10.613 17.434l0.020-0.022-312.685 310.653c-9.35 9.237-22.207 14.942-36.397 14.942-7.126 0-13.917-1.439-20.095-4.043l0.341 0.128c-6.333-2.695-11.732-6.42-16.244-11.019l-0.007-0.007-35.694-36.564c-9.237-9.35-14.942-22.207-14.942-36.397 0-7.126 1.439-13.917 4.043-20.095l-0.128 0.341c2.695-6.333 6.42-11.732 11.019-16.244l0.007-0.007 237.234-239.265-237.234-238.54c-4.607-4.519-8.332-9.917-10.904-15.928l-0.123-0.323c-2.479-5.769-3.919-12.482-3.919-19.533 0-0.121 0.001-0.244 0.002-0.364v0.018c0-0.079-0.001-0.172-0.001-0.266 0-7.227 1.439-14.118 4.047-20.401l-0.131 0.353c2.552-6.29 6.299-11.62 10.995-15.931l0.031-0.028 35.694-37.289zM150.488 99.768c4.704-4.25 10.109-7.845 15.999-10.572l0.397-0.165c5.509-2.395 11.923-3.787 18.665-3.787 0.426 0 0.852 0.006 1.276 0.017l-0.062-0.002c0.047 0 0.102 0 0.156 0 7.143 0 13.923 1.549 20.025 4.331l-0.302-0.123c6.219 2.8 11.574 6.251 16.334 10.372l-0.083-0.070 311.089 312.104c4.671 4.572 8.409 10.079 10.912 16.22l0.116 0.322c2.479 5.965 3.918 12.896 3.918 20.161 0 0.053 0 0.108 0 0.162v-0.008c0 0.078 0.001 0.17 0.001 0.262 0 7.178-1.44 14.021-4.046 20.253l0.129-0.346c-2.617 6.512-6.355 12.067-11.023 16.681l-0.005 0.005-311.815 310.653c-4.54 4.573-9.933 8.291-15.92 10.9l-0.331 0.129c-5.488 2.22-11.854 3.509-18.522 3.509-0.579 0-1.155-0.009-1.731-0.028l0.084 0.003c-0.233 0.005-0.509 0.006-0.786 0.006-13.826 0-26.358-5.541-35.495-14.522l0.007 0.006-36.275-36.564c-9.237-9.35-14.942-22.207-14.942-36.397 0-7.126 1.439-13.917 4.043-20.095l-0.128 0.341c2.695-6.333 6.42-11.732 11.019-16.244l0.007-0.007 238.25-239.265-238.25-238.54c-4.607-4.519-8.332-9.917-10.904-15.928l-0.123-0.323c-2.216-5.484-3.501-11.843-3.501-18.502 0-0.483 0.006-0.967 0.020-1.447l-0.002 0.071c0-0.079-0.001-0.172-0.001-0.266 0-7.227 1.439-14.118 4.047-20.401l-0.131 0.353c2.426-6.264 6.031-11.593 10.576-15.946l0.017-0.016 36.564-37.289z"/>
<glyph unicode="&#x7e;" glyph-name="brush" d="M160.069 366.080c-0.042-1.090-0.069-2.366-0.069-3.65 0-54.576 44.719-98.816 99.886-98.816 1.298 0 2.592 0.024 3.876 0.072l82.621-0.006c0.954 0.054 2.068 0.086 3.192 0.086 32.585 0 59-26.132 59-58.368 0-1.11-0.032-2.214-0.093-3.31l0.008-219.496c0.099-25.692 21.124-46.496 47.086-46.592h112.661c25.97 0.096 47 20.9 47.097 46.582v219.486c-0.061 0.998-0.097 2.164-0.097 3.338 0 32.236 26.415 58.368 59 58.368 1.187 0 2.367-0.034 3.536-0.102l82.645 0.008c1.154-0.048 2.509-0.074 3.869-0.074 55.070 0 99.712 44.164 99.712 98.644 0 1.346-0.028 2.688-0.081 4.020l0.006 102.21h-703.861l0.004-102.4zM420.565 960l-74.183-73.388-74.183 73.388h-112.135v-450.56h703.861v450.56h-443.36z"/>
<glyph unicode="&#xa1;" glyph-name="graph-line" d="M0 60.27v30.507c0 18.872 8.329 36.782 22.761 48.942l277.261 233.626c54.49 45.914 129.926 57.876 195.947 31.070l54.621-22.177c74.466-30.235 159.884-10.889 214.057 48.479l203.715 223.251c11.913 13.055 32.153 13.981 45.208 2.068 6.645-6.063 10.43-14.643 10.43-23.638v-504.398c0-70.692-57.308-128-128-128h-835.73c-33.286 0-60.27 26.984-60.27 60.27zM322.145 508.556l-218.165-174.532c-27.601-22.081-67.875-17.606-89.956 9.995s-17.606 67.875 9.995 89.956l261.785 209.428c58.993 47.194 140.179 55.407 207.428 20.983l74.82-38.3c25.85-13.232 57.37-7.401 76.775 14.203l263.093 292.909c20.545 28.762 60.516 35.424 89.278 14.88s35.424-60.516 14.88-89.278l-275.116-316.685c-55.434-63.809-146.777-82.504-222.822-45.603l-56.154 27.249c-44.423 21.557-97.285 15.639-135.842-15.207z"/>
<glyph unicode="&#xa2;" glyph-name="upload-cloud" d="M512 128v128h80.297c15.811 0 31.062 5.852 42.814 16.429 26.273 23.645 28.402 64.112 4.757 90.385l-144.297 160.33c-1.501 1.668-3.089 3.256-4.757 4.757-26.273 23.645-66.739 21.516-90.385-4.757l-144.297-160.33c-10.577-11.752-16.429-27.003-16.429-42.814 0-35.346 28.654-64 64-64h80.297v-128h-134.826c-134.486 0-249.174 105.007-249.174 233.656l0.002 0.090c0.964 124.682 104.79 225.987 234.836 230.305l0.118 1.032c13.786 98.746 102.292 174.917 209.42 174.917 99.562 0 183.040-65.792 205.694-155.731l-1.186-0.361c18.238 6.353 37.93 9.82 58.468 9.82 87.884 0 160.254-63.463 169.706-145.77l-0.004 0.002 1.202-0.204c83.204-16.805 145.664-87.332 145.742-171.82l-0.004-0.235c-2.662-97.469-86.2-175.7-188.862-175.7-0.080 0-0.162 0-0.23 0h-322.904z"/>
<glyph unicode="&#xa3;" glyph-name="download-cloud" d="M384 759.638v-247.638h-80.297c-35.346 0-64-28.654-64-64 0-15.811 5.852-31.062 16.429-42.814l144.297-160.33c23.645-26.273 64.112-28.402 90.385-4.757 1.668 1.501 3.256 3.089 4.757 4.757l144.297 160.33c23.645 26.273 21.516 66.739-4.757 90.385-11.752 10.577-27.003 16.429-42.814 16.429h-80.297v245.413c68.105-22.058 120.518-76.658 136.885-145.505 18.238 6.353 37.93 9.82 58.468 9.82 87.884 0 160.254-63.463 170.904-145.972 83.204-16.805 145.664-87.332 145.738-172.055-2.662-97.469-86.2-175.7-189.092-175.7h-585.729c-134.486 0-249.174 105.007-249.172 233.746 0.964 124.682 104.79 225.987 234.954 231.337 11.086 79.407 70.491 144.216 149.044 166.555z"/>
<glyph unicode="&#xa5;" glyph-name="color-pick-eyedropper" d="M646.997 791.552l45.056-45.227-304.299-304.469c0.395-4.001 0.62-8.648 0.62-13.348 0-37.29-14.17-71.27-37.419-96.85l22.634-22.41 22.528-22.528c25.415 23.141 59.352 37.311 96.598 37.311 4.687 0 9.321-0.224 13.893-0.663l303.887 304.514 45.056-45.227 51.2 51.2-208.896 208.384zM506.197 385.365c-6.949-6.006-16.072-9.665-26.049-9.665-22.056 0-39.936 17.88-39.936 39.936 0 9.977 3.659 19.1 9.708 26.1l273.024 273.016 56.32-56.491zM999.424 935.424v0c-15.17 15.196-36.14 24.597-59.307 24.597s-44.137-9.401-59.306-24.596l-118.273-118.444 118.613-119.467 118.272 118.443c15.411 15.23 24.955 36.367 24.955 59.733s-9.544 44.503-24.947 59.725zM486.571 51.2h-370.688v371.029h156.331c5.090 0 9.216 4.126 9.216 9.216v96.768c0 5.090-4.126 9.216-9.216 9.216h-262.997c-5.090 0-9.216-4.126-9.216-9.216v-582.997c0-0.008 0-0.016 0-0.025 0-5.090 4.126-9.216 9.216-9.216 0.24 0 0.478 0.009 0.714 0.027l583.819-0.002c5.090 0 9.216 4.126 9.216 9.216v262.485c0 5.090-4.126 9.216-9.216 9.216h-97.451c-5.090 0-9.216-4.126-9.216-9.216z"/>
<glyph unicode="&#xa7;" glyph-name="align-y-top" d="M64 832h896c35.346 0 64-28.654 64-64s-28.654-64-64-64h-896c-35.346 0-64 28.654-64 64s28.654 64 64 64zM320 576h384c35.346 0 64-28.654 64-64v-384c0-35.346-28.654-64-64-64h-384c-35.346 0-64 28.654-64 64v384c0 35.346 28.654 64 64 64z"/>
<glyph unicode="&#xa8;" glyph-name="calculator" d="M192 960h640c70.692 0 128-57.308 128-128v-768c0-70.692-57.308-128-128-128h-640c-70.692 0-128 57.308-128 128v768c0 70.692 57.308 128 128 128zM256 832c-35.346 0-64-28.654-64-64v-32c0-35.346 28.654-64 64-64h512c35.346 0 64 28.654 64 64v32c0 35.346-28.654 64-64 64h-512zM224 576c-17.673 0-32-14.327-32-32v-64c0-17.673 14.327-32 32-32h96c17.673 0 32 14.327 32 32v64c0 17.673-14.327 32-32 32h-96zM464 576c-17.673 0-32-14.327-32-32v-64c0-17.673 14.327-32 32-32h96c17.673 0 32 14.327 32 32v64c0 17.673-14.327 32-32 32h-96zM224 384c-17.673 0-32-14.327-32-32v-64c0-17.673 14.327-32 32-32h96c17.673 0 32 14.327 32 32v64c0 17.673-14.327 32-32 32h-96zM464 384c-17.673 0-32-14.327-32-32v-64c0-17.673 14.327-32 32-32h96c17.673 0 32 14.327 32 32v64c0 17.673-14.327 32-32 32h-96zM224 192c-17.673 0-32-14.327-32-32v-64c0-17.673 14.327-32 32-32h96c17.673 0 32 14.327 32 32v64c0 17.673-14.327 32-32 32h-96zM464 192c-17.673 0-32-14.327-32-32v-64c0-17.673 14.327-32 32-32h96c17.673 0 32 14.327 32 32v64c0 17.673-14.327 32-32 32h-96zM704 576c-17.673 0-32-14.327-32-32v-64c0-17.673 14.327-32 32-32h96c17.673 0 32 14.327 32 32v64c0 17.673-14.327 32-32 32h-96zM704 384c-17.673 0-32-14.327-32-32v-64c0-17.673 14.327-32 32-32h96c17.673 0 32 14.327 32 32v64c0 17.673-14.327 32-32 32h-96zM704 192c-17.673 0-32-14.327-32-32v-64c0-17.673 14.327-32 32-32h96c17.673 0 32 14.327 32 32v64c0 17.673-14.327 32-32 32h-96z"/>
<glyph unicode="&#xa9;" glyph-name="layout" d="M958.507 723.968h-893.163v116.928c0 30.433 24.671 55.104 55.104 55.104h782.955c30.433 0 55.104-24.671 55.104-55.104zM272.171 0h-151.723c-30.433 0-55.104 24.671-55.104 55.104v610.624h206.827zM327.424 665.728h631.232v-331.072h-631.232v331.072zM903.403 0h-575.979v275.968h631.083v-220.864c0-30.433-24.671-55.104-55.104-55.104z"/>
<glyph unicode="&#xaa;" glyph-name="branda" d="M512 64c141.385 0 256 114.615 256 256v608c0 17.673 14.327 32 32 32h64c17.673 0 32-14.327 32-32v-608c0-212.077-171.923-384-384-384s-384 171.923-384 384v608c0 17.673 14.327 32 32 32h320c17.673 0 32-14.327 32-32v-864zM384 98.248v733.752h-128v-512c0-94.756 51.481-177.488 128-221.752z"/>
<glyph unicode="&#xab;" glyph-name="laptop" d="M125.27 257.806h773.803c29.523 0.097 53.419 24.053 53.419 53.589 0 0 0 0 0 0v473.941c0 29.502-23.916 53.419-53.419 53.419h-773.803c-29.502 0-53.419-23.916-53.419-53.419v-474.112c0 0 0 0 0 0 0-29.537 23.896-53.492 53.409-53.589zM178.688 731.748h666.795v-367.275h-666.624zM999.595 204.217h-974.677c-13.667 0-24.747-11.079-24.747-24.747v-59.733c-0.002-0.108-0.003-0.235-0.003-0.363 0-6.447 2.465-12.318 6.505-16.722l34.117-37.87c4.505-4.65 10.806-7.537 17.782-7.537 0.409 0 0.815 0.010 1.219 0.029l902.258-0.002c6.688 0.147 12.7 2.925 17.065 7.337l37.549 37.89c4.351 4.388 7.070 10.401 7.168 17.048v59.752c-0.096 13.534-11.042 24.48-24.567 24.576zM605.184 118.542c0.019-0.161 0.029-0.347 0.029-0.536 0-2.563-1.949-4.672-4.446-4.924l-177.344-0.002c-2.518 0.254-4.466 2.362-4.466 4.926 0 0.189 0.011 0.375 0.031 0.558l-0.002 24.041c-0.019 0.161-0.029 0.347-0.029 0.536 0 2.563 1.949 4.672 4.446 4.924l177.514 0.002c2.518-0.254 4.466-2.362 4.466-4.926 0-0.189-0.011-0.375-0.031-0.558z"/>
<glyph unicode="&#xac;" glyph-name="arrows-expand" d="M109.982 293.839l-45.997-275.685c-0.147-0.806-0.231-1.734-0.231-2.682 0-4.315 1.744-8.223 4.562-11.058l-0.001 0.001c2.724-2.85 6.557-4.623 10.803-4.623 1.040 0 2.053 0.105 3.032 0.308l274.843 46.428c7.493 1.27 13.129 7.712 13.129 15.471 0 4.342-1.764 8.271-4.615 11.111l-53.764 53.764 144.264 144.264c2.861 2.841 4.63 6.777 4.63 11.127s-1.771 8.285-4.629 11.126l-99.463 99.463c-2.841 2.861-6.777 4.63-11.127 4.63s-8.285-1.771-11.126-4.629l-143.966-144.265-53.764 53.764c-2.839 2.851-6.77 4.615-11.112 4.615-7.759 0-14.201-5.636-15.458-13.035zM914.040 602.081l45.997 275.685c0.133 0.768 0.209 1.652 0.209 2.555 0 4.305-1.734 8.202-4.542 11.037l0.001-0.001c-2.884 2.991-6.926 4.851-11.404 4.851-0.931 0-1.842-0.080-2.729-0.234l-274.843-46.731c-7.493-1.27-13.129-7.712-13.129-15.471 0-4.342 1.764-8.271 4.615-11.111l53.764-53.764-144.264-144.414c-2.861-2.841-4.63-6.777-4.63-11.127s1.771-8.285 4.629-11.126l99.463-99.463c2.841-2.861 6.777-4.63 11.127-4.63s8.285 1.771 11.126 4.629l144.414 144.414 53.764-53.764c2.839-2.851 6.77-4.615 11.112-4.615 7.759 0 14.201 5.636 15.458 13.035z"/>
</font>
</defs>
</svg>
